Начать новую тему Ответить на тему
Статистика раздачи
Размер: 326.53 МБ | Добавлен: 16 мар 2014, 00:09 | Скачали: 2
Сидеров: 5  [0 байт/сек]    Личеров: 2  [0 байт/сек]
Пред. тема | След. тема 

Автор
Сообщение

СообщениеДобавлено: 16 мар 2014, 00:09 

Ответить с цитатой 

Electric Light Orchestra - Secret Messages (1983)

Год: 1988
Жанр: Classic Rock, Symphonic Rock
Лейбл: Epic
Каталог #: EPC 462487 2
Продолжительность: 00:46:52
Кодек: FLAC
Тип рипа: image + .cue
Битрейт: Lossless
Треклист:
01. Secret Messages (4:44)
02. Loser Gone Wild (5:26)
03. Bluebird (4:07)
04. On And On (5:03)
05. Time After Time (4:03)
06. Four Little Diamonds (4:07)
07. Stranger (4:28)
08. Danger Ahead (3:53)
09. Letter From Spain (2:52)
10. Train Of Gold (4:22)
11. Rock And Roll Is King (3:48)
Код:
Код:
Exact Audio Copy V1.0 beta 3 from 29. August 2011

EAC extraction logfile from 20. December 2013, 18:07

Electric Light Orchestra / Secret Messages

Used drive  : PLEXTOR DVDR   PX-810SA   Adapter: 2  ID: 0

Read mode               : Secure
Utilize accurate stream : Yes
Defeat audio cache      : Yes
Make use of C2 pointers : No

Read offset correction                      : 48
Overread into Lead-In and Lead-Out          : No
Fill up missing offset samples with silence : Yes
Delete leading and trailing silent blocks   : No
Null samples used in CRC calculations       : Yes
Used interface                              : Installed external ASPI interface

Used output format              : User Defined Encoder
Selected bitrate                : 1024 kBit/s
Quality                         : High
Add ID3 tag                     : No
Command line compressor         : C:\Program Files (x86)\Exact Audio Copy\Flac\flac.exe
Additional command line options : -8 -V -T "Date=%year%" -T "Genre=%genre%" -T "COMMENT=ripped by bvstudio®" %source%

TOC of the extracted CD

     Track |   Start  |  Length  | Start sector | End sector
    ---------------------------------------------------------
        1  |  0:00.00 |  4:44.27 |         0    |    21326
        2  |  4:44.27 |  5:25.70 |     21327    |    45771
        3  | 10:10.22 |  4:06.53 |     45772    |    64274
        4  | 14:17.00 |  5:02.65 |     64275    |    86989
        5  | 19:19.65 |  4:03.10 |     86990    |   105224
        6  | 23:23.00 |  4:06.65 |    105225    |   123739
        7  | 27:29.65 |  4:28.10 |    123740    |   143849
        8  | 31:58.00 |  3:52.55 |    143850    |   161304
        9  | 35:50.55 |  2:51.67 |    161305    |   174196
       10  | 38:42.47 |  4:21.38 |    174197    |   193809
       11  | 43:04.10 |  3:47.40 |    193810    |   210874

Range status and errors

Selected range

     Filename F:\Electric Light Orchestra\1983 - Secret Messages (Reissue - CBS • Jet. Austria - EPC 462487 2 - Pre-Emphasis)\Electric Light Orchestra - Secret Messages.wav

     Peak level 82.0 %
     Extraction speed 6.9 X
     Range quality 100.0 %
     Test CRC C447F1F1
     Copy CRC C447F1F1
     Copy OK

No errors occurred

AccurateRip summary

Track  1  accurately ripped (confidence 2)  [62789F29]  (AR v1)
Track  2  accurately ripped (confidence 2)  [3BC7A0F7]  (AR v1)
Track  3  accurately ripped (confidence 2)  [0B68601F]  (AR v1)
Track  4  accurately ripped (confidence 2)  [E6EF950B]  (AR v1)
Track  5  accurately ripped (confidence 2)  [A34DFF32]  (AR v1)
Track  6  accurately ripped (confidence 2)  [37A064FA]  (AR v1)
Track  7  accurately ripped (confidence 2)  [11F644F5]  (AR v1)
Track  8  accurately ripped (confidence 2)  [0A9AA607]  (AR v1)
Track  9  accurately ripped (confidence 2)  [649A7EC2]  (AR v1)
Track 10  accurately ripped (confidence 2)  [E3C8A28B]  (AR v1)
Track 11  accurately ripped (confidence 2)  [70304E12]  (AR v1)

All tracks accurately ripped

End of status report

---- CUETools DB Plugin V2.1.5

[CTDB TOCID: cDzh6THG.MHEkthiNR3cHBxTFkA-] found
Submit result: already submitted
Track | CTDB Status
  1   | (30/38) Accurately ripped
  2   | (31/38) Accurately ripped
  3   | (31/38) Accurately ripped
  4   | (31/38) Accurately ripped
  5   | (31/38) Accurately ripped
  6   | (31/38) Accurately ripped
  7   | (31/38) Accurately ripped
  8   | (31/38) Accurately ripped
  9   | (31/38) Accurately ripped
 10   | (31/38) Accurately ripped
 11   | (29/38) Accurately ripped

==== Log checksum E612A6392E7EE642FCEE44EC33AF8EACE519F8CD8B596558DAD17E994D57D089 ====

Код:
Код:
-----------------------

DON'T MODIFY THIS FILE

-----------------------

PERFORMER: auCDtect Task Manager, ver. 1.6.0 RC1 build 1.6.0.1
Copyright (c) 2008-2010 y-soft. All rights reserved
http:/y-soft.org

ANALYZER: auCDtect: CD records authenticity detector, version 0.8.2
Copyright (c) 2004 Oleg Berngardt. All rights reserved.
Copyright (c) 2004 Alexander Djourik. All rights reserved.

FILE: Electric Light Orchestra - Secret Messages.flac
  Size: 318550786 Hash: 07B52D44C7A42C6C3A313EFD5830734C Accuracy: -m0
  Conclusion: MPEG 95%
  Signature: 23848F28F4A0EA266324F630E0FA867CA1FB98D2

Код:
Код:
REM GENRE Rock
REM DATE 1983
REM DISCID 870AFB0B
REM COMMENT "ExactAudioCopy v1.0b3"
PERFORMER "Electric Light Orchestra"
TITLE "Secret Messages"
FILE "Electric Light Orchestra - Secret Messages.flac" WAVE
  TRACK 01 AUDIO
    TITLE "Secret Messages"
    PERFORMER "Electric Light Orchestra"
    FLAGS PRE
    INDEX 01 00:00:00
  TRACK 02 AUDIO
    TITLE "Loser Gone Wild"
    PERFORMER "Electric Light Orchestra"
    FLAGS PRE
    INDEX 01 04:44:27
  TRACK 03 AUDIO
    TITLE "Bluebird"
    PERFORMER "Electric Light Orchestra"
    FLAGS PRE
    INDEX 01 10:10:22
  TRACK 04 AUDIO
    TITLE "On And On"
    PERFORMER "Electric Light Orchestra"
    FLAGS PRE
    INDEX 01 14:17:00
  TRACK 05 AUDIO
    TITLE "Time After Time"
    PERFORMER "Electric Light Orchestra"
    FLAGS PRE
    INDEX 01 19:19:65
  TRACK 06 AUDIO
    TITLE "Four Little Diamonds"
    PERFORMER "Electric Light Orchestra"
    FLAGS PRE
    INDEX 00 23:22:57
    INDEX 01 23:23:00
  TRACK 07 AUDIO
    TITLE "Stranger"
    PERFORMER "Electric Light Orchestra"
    FLAGS PRE
    INDEX 01 27:29:65
  TRACK 08 AUDIO
    TITLE "Danger Ahead"
    PERFORMER "Electric Light Orchestra"
    FLAGS PRE
    INDEX 01 31:58:00
  TRACK 09 AUDIO
    TITLE "Letter From Spain"
    PERFORMER "Electric Light Orchestra"
    FLAGS PRE
    INDEX 00 35:50:54
    INDEX 01 35:50:55
  TRACK 10 AUDIO
    TITLE "Train Of Gold"
    PERFORMER "Electric Light Orchestra"
    FLAGS PRE
    INDEX 01 38:42:47
  TRACK 11 AUDIO
    TITLE "Rock And Roll Is King"
    PERFORMER "Electric Light Orchestra"
    FLAGS PRE
    INDEX 01 43:04:10

Код:
Код:
[CUETools log; Date: 16.01.2014 20:06:50; Version: 2.1.4]
[CTDB TOCID: cDzh6THG.MHEkthiNR3cHBxTFkA-] found.
Track | CTDB Status
  1   | (30/39) Accurately ripped
  2   | (31/39) Accurately ripped
  3   | (31/39) Accurately ripped
  4   | (31/39) Accurately ripped
  5   | (31/39) Accurately ripped
  6   | (31/39) Accurately ripped
  7   | (31/39) Accurately ripped
  8   | (31/39) Accurately ripped
  9   | (31/39) Accurately ripped
 10   | (31/39) Accurately ripped
 11   | (29/39) Accurately ripped
[AccurateRip ID: 001450a6-00ad975c-870afb0b] found.
Track   [  CRC   |   V2   ] Status
 01     [62789f29|6c29d0be] (002+002/125) Accurately ripped
 02     [3bc7a0f7|d20583b9] (002+002/121) Accurately ripped
 03     [0b68601f|ccf4ab13] (002+002/122) Accurately ripped
 04     [e6ef950b|b5d8e0af] (002+002/123) Accurately ripped
 05     [a34dff32|956c0e77] (002+002/124) Accurately ripped
 06     [37a064fa|a117778b] (002+002/123) Accurately ripped
 07     [11f644f5|66450c5a] (002+002/123) Accurately ripped
 08     [0a9aa607|cbe3654a] (002+002/123) Accurately ripped
 09     [649a7ec2|b68c5cd0] (002+002/123) Accurately ripped
 10     [e3c8a28b|7322732d] (002+002/123) Accurately ripped
 11     [70304e12|034eed2e] (002+002/121) Accurately ripped
Offsetted by 272:
 01     [be25e678] (031/125) Accurately ripped
 02     [bf3bc5fe] (030/121) Accurately ripped
 03     [c8b64d21] (029/122) Accurately ripped
 04     [6ecec4e7] (031/123) Accurately ripped
 05     [aebc7f3e] (031/124) Accurately ripped
 06     [f8aa312b] (030/123) Accurately ripped
 07     [890de571] (030/123) Accurately ripped
 08     [9b4ade70] (030/123) Accurately ripped
 09     [e5993917] (030/123) Accurately ripped
 10     [4dc01a68] (030/123) Accurately ripped
 11     [5bf822cc] (030/121) Accurately ripped
Offsetted by 67:
 01     [1fc176d1] (000/125) No match (V2 was not tested)
 02     [2ea659e1] (000/121) No match
 03     [b956b5b0] (000/122) No match
 04     [24eb11c2] (000/123) No match (V2 was not tested)
 05     [5f25e17c] (000/124) No match
 06     [d9aa6298] (000/123) No match (V2 was not tested)
 07     [c6d86fc7] (000/123) No match
 08     [12e4fc0a] (000/123) No match (V2 was not tested)
 09     [2997ed1c] (000/123) No match (V2 was not tested)
 10     [c676c80a] (000/123) No match (V2 was not tested)
 11     [223c5289] (000/121) No match (V2 was not tested)
Offsetted by 118:
 01     [37134444] (000/125) No match (V2 was not tested)
 02     [775f7186] (000/121) No match
 03     [b987e0e0] (000/122) No match
 04     [9393ad21] (000/123) No match (V2 was not tested)
 05     [5d09a641] (000/124) No match
 06     [c17c2f9a] (000/123) No match (V2 was not tested)
 07     [ac26041f] (000/123) No match
 08     [070b2c24] (000/123) No match (V2 was not tested)
 09     [86349122] (000/123) No match (V2 was not tested)
 10     [829b97b9] (000/123) No match (V2 was not tested)
 11     [5a33b02c] (000/121) No match (V2 was not tested)
Offsetted by 353:
 01     [f0436d60] (000/125) No match (V2 was not tested)
 02     [229c8234] (000/121) No match
 03     [fa9d49a5] (000/122) No match
 04     [7073e433] (000/123) No match (V2 was not tested)
 05     [b29d04b8] (000/124) No match
 06     [0db6013e] (000/123) No match (V2 was not tested)
 07     [e1ed3ff1] (000/123) No match
 08     [c2dd9d19] (000/123) No match (V2 was not tested)
 09     [4cd59a7c] (000/123) No match (V2 was not tested)
 10     [76fdec2c] (000/123) No match
 11     [d6b4a2be] (000/121) No match (V2 was not tested)

Track Peak [ CRC32  ] [W/O NULL] [  LOG   ]
 --   82,0 [C447F1F1] [8768582D]   CRC32
 01   71,3 [7D279397] [C2B0C145]
 02   63,6 [C815A81C] [42C92CA9]
 03   67,4 [88A4F633] [D5D2E6DF]
 04   75,7 [0B1F751C] [58E275A5]
 05   62,5 [4C42AB09] [F5C2BA20]
 06   77,1 [BDA6DBEF] [E3AA61E1]
 07   82,0 [25399267] [15E7BDFF]
 08   68,0 [11F0AB1F] [EB06F8A3]
 09   23,7 [5F51C9E7] [512165D1]
 10   55,1 [31F10AD6] [E1F1E110]
 11   52,3 [4D928A4C] [1851AFE7]

Правила, инструкции, FAQ!!!
Торрент  Добавлен [16 мар 2014, 00:09] Скачать торрент Магнет ссылка
Скачать торрент
[ Размер 14.15 КБ / Просмотров 59 ]

Статус  
 
Размер  326.53 МБ
Приватный: Нет (DHT включён)
.torrent скачан  2
 


     Отправить личное сообщение
   
Страница 1 из 1
Показать сообщения за:  Поле сортировки  
Начать новую тему Ответить на тему


Сейчас этот форум просматривают: нет зарегистрированных пользователей и гости: 0


Вы не можете начинать темы
Вы не можете отвечать на сообщения
Вы не можете редактировать свои сообщения
Вы не можете удалять свои сообщения
Вы не можете добавлять вложения

Перейти:  
cron
cron