Начать новую тему Ответить на тему
Статистика раздачи
Размер: 244.25 МБ | Добавлен: 16 мар 2014, 00:16 | Скачали: 0
Сидеров: 2  [0 байт/сек]    Личеров: 1  [0 байт/сек]
Пред. тема | След. тема 

Автор
Сообщение

СообщениеДобавлено: 16 мар 2014, 00:16 

Ответить с цитатой 

Electric Light Orchestra - No Answer (1971)

Год: 1971
Жанр: Classic Rock, Symphonic Rock
Лейбл: Epic, Jet Records
Каталог #: ZK 35524
Продолжительность: 00:41:29
Кодек: FLAC
Тип рипа: image + .cue
Битрейт: Lossless
Треклист:
01. 10538 Overture (5:31)
02. Look At Me Now (3:18)
03. Nellie Takes Her Bow (5:59)
04. Battle Of Marston Moor (July 2nd 1644) (6:06)
05. 1st Movement (3:00)
06. Mr. Radio (5:04)
07. Manhatten Rumble (49th St. Massacre) (4:23)
08. Queen Of The Hours (3:22)
09. Whisper In The Night (4:46)
Код:
Код:
Exact Audio Copy V1.0 beta 3 from 29. August 2011

EAC extraction logfile from 20. November 2013, 19:59

Electric Light Orchestra / No Answer

Used drive  : PLEXTOR DVDR   PX-810SA   Adapter: 2  ID: 0

Read mode               : Secure
Utilize accurate stream : Yes
Defeat audio cache      : Yes
Make use of C2 pointers : No

Read offset correction                      : 48
Overread into Lead-In and Lead-Out          : No
Fill up missing offset samples with silence : Yes
Delete leading and trailing silent blocks   : No
Null samples used in CRC calculations       : Yes
Used interface                              : Installed external ASPI interface

Used output format              : User Defined Encoder
Selected bitrate                : 1024 kBit/s
Quality                         : High
Add ID3 tag                     : No
Command line compressor         : C:\Program Files (x86)\Exact Audio Copy\Flac\flac.exe
Additional command line options : -8 -V -T "Date=%year%" -T "Genre=%genre%" -T "COMMENT=ripped by bvstudio®" %source%

TOC of the extracted CD

     Track |   Start  |  Length  | Start sector | End sector
    ---------------------------------------------------------
        1  |  0:00.00 |  5:31.10 |         0    |    24834
        2  |  5:31.10 |  3:17.47 |     24835    |    39656
        3  |  8:48.57 |  5:59.35 |     39657    |    66616
        4  | 14:48.17 |  6:05.63 |     66617    |    94054
        5  | 20:54.05 |  3:00.05 |     94055    |   107559
        6  | 23:54.10 |  5:04.17 |    107560    |   130376
        7  | 28:58.27 |  4:22.50 |    130377    |   150076
        8  | 33:21.02 |  3:22.10 |    150077    |   165236
        9  | 36:43.12 |  4:45.55 |    165237    |   186666

Range status and errors

Selected range

     Filename F:\Electric Light Orchestra\1971 - No Answer (1990 - Epic • Jet. USA - ZK 35524)\Electric Light Orchestra - No Answer.wav

     Peak level 100.0 %
     Extraction speed 6.7 X
     Range quality 100.0 %
     Test CRC 40B0A470
     Copy CRC 40B0A470
     Copy OK

No errors occurred

AccurateRip summary

Track  1  accurately ripped (confidence 4)  [65EB491E]  (AR v2)
Track  2  accurately ripped (confidence 4)  [3C592A9E]  (AR v2)
Track  3  accurately ripped (confidence 4)  [F888ACFF]  (AR v2)
Track  4  accurately ripped (confidence 4)  [3DF4D92C]  (AR v2)
Track  5  accurately ripped (confidence 4)  [4A393871]  (AR v2)
Track  6  accurately ripped (confidence 4)  [8EED0FC4]  (AR v2)
Track  7  accurately ripped (confidence 4)  [14595EF7]  (AR v2)
Track  8  accurately ripped (confidence 4)  [30C8307C]  (AR v2)
Track  9  accurately ripped (confidence 4)  [B584A5C7]  (AR v2)

All tracks accurately ripped

End of status report

---- CUETools DB Plugin V2.1.5

[CTDB TOCID: ts9ZeCWpn.wsDqeHs3q0wRFW_qQ-] disk not present in database
Submit result: ts9ZeCWpn.wsDqeHs3q0wRFW_qQ- has been uploaded

==== Log checksum 1B29F8E05B92353E4FD9693B1FB6C5FDC82BA2C026845FC966F2B94AB05C8B34 ====

Код:
Код:
-----------------------

DON'T MODIFY THIS FILE

-----------------------

PERFORMER: auCDtect Task Manager, ver. 1.6.0 RC1 build 1.6.0.1
Copyright (c) 2008-2010 y-soft. All rights reserved
http:/y-soft.org

ANALYZER: auCDtect: CD records authenticity detector, version 0.8.2
Copyright (c) 2004 Oleg Berngardt. All rights reserved.
Copyright (c) 2004 Alexander Djourik. All rights reserved.

FILE: Electric Light Orchestra - No Answer.flac
  Size: 236732374 Hash: D20CBD9F0C1DDD7A2946B45ADFB5DA47 Accuracy: -m0
  Conclusion: CDDA 100%
  Signature: 0AC7C14EEB7603C1AFD9041567352C60608DD2CA

Код:
Код:
REM GENRE Rock
REM DATE 1971
REM DISCID 5A09B809
REM COMMENT "ExactAudioCopy v1.0b3"
PERFORMER "Electric Light Orchestra"
TITLE "No Answer"
FILE "Electric Light Orchestra - No Answer.flac" WAVE
  TRACK 01 AUDIO
    TITLE "10538 Overture"
    PERFORMER "Electric Light Orchestra"
    INDEX 01 00:00:00
  TRACK 02 AUDIO
    TITLE "Look At Me Now"
    PERFORMER "Electric Light Orchestra"
    INDEX 00 05:30:27
    INDEX 01 05:31:10
  TRACK 03 AUDIO
    TITLE "Nellie Takes Her Bow"
    PERFORMER "Electric Light Orchestra"
    INDEX 00 08:47:55
    INDEX 01 08:48:57
  TRACK 04 AUDIO
    TITLE "Battle Of Marston Moor (July 2nd 1644)"
    PERFORMER "Electric Light Orchestra"
    INDEX 00 14:46:42
    INDEX 01 14:48:17
  TRACK 05 AUDIO
    TITLE "1st Movement"
    PERFORMER "Electric Light Orchestra"
    INDEX 00 20:50:47
    INDEX 01 20:54:05
  TRACK 06 AUDIO
    TITLE "Mr. Radio"
    PERFORMER "Electric Light Orchestra"
    INDEX 00 23:52:02
    INDEX 01 23:54:10
  TRACK 07 AUDIO
    TITLE "Manhatten Rumble (49th St. Massacre)"
    PERFORMER "Electric Light Orchestra"
    INDEX 00 28:57:12
    INDEX 01 28:58:27
  TRACK 08 AUDIO
    TITLE "Queen Of The Hours"
    PERFORMER "Electric Light Orchestra"
    INDEX 00 33:19:65
    INDEX 01 33:21:02
  TRACK 09 AUDIO
    TITLE "Whisper In The Night"
    PERFORMER "Electric Light Orchestra"
    INDEX 00 36:42:15
    INDEX 01 36:43:12

Код:
Код:
[CUETools log; Date: 07.01.2014 22:44:29; Version: 2.1.4]
[CTDB TOCID: ts9ZeCWpn.wsDqeHs3q0wRFW_qQ-] found.
Track | CTDB Status
  1   | (1/1) Accurately ripped
  2   | (1/1) Accurately ripped
  3   | (1/1) Accurately ripped
  4   | (1/1) Accurately ripped
  5   | (1/1) Accurately ripped
  6   | (1/1) Accurately ripped
  7   | (1/1) Accurately ripped
  8   | (1/1) Accurately ripped
  9   | (1/1) Accurately ripped
[AccurateRip ID: 000eb9da-006b154b-5a09b809] found.
Track   [  CRC   |   V2   ] Status
 01     [e10a61eb|65eb491e] (4+5/9) Accurately ripped
 02     [006a5496|3c592a9e] (4+5/9) Accurately ripped
 03     [d0ed4970|f888acff] (4+5/9) Accurately ripped
 04     [bf384fcb|3df4d92c] (4+5/9) Accurately ripped
 05     [5e4b1a15|4a393871] (4+5/9) Accurately ripped
 06     [c43ce86e|8eed0fc4] (4+5/9) Accurately ripped
 07     [e240e588|14595ef7] (4+5/9) Accurately ripped
 08     [6c1e632c|30c8307c] (4+5/9) Accurately ripped
 09     [51c0f1bf|b584a5c7] (4+5/9) Accurately ripped

Track Peak [ CRC32  ] [W/O NULL] [  LOG   ]
 --  100,0 [40B0A470] [394E0AD3]   CRC32
 01   92,7 [C2C6730F] [CC569FC2]
 02   93,2 [3602BC15] [A29E8787]
 03  100,0 [615E4DE3] [22DEA5A7]
 04   97,5 [988AA30B] [38F30EB5]
 05   95,7 [CBFC1C21] [81C35E4E]
 06   75,5 [4B43A19C] [06C8D832]
 07  100,0 [97B5DC06] [06188CB2]
 08   94,8 [53CE5FE2] [26E4DE6B]
 09   69,2 [9B8D699A] [DD47325E]

Правила, инструкции, FAQ!!!
Торрент  Добавлен [16 мар 2014, 00:16] Скачать торрент Магнет ссылка
Скачать торрент
[ Размер 20.37 КБ / Просмотров 33 ]

Статус  
 
Размер  244.25 МБ
Приватный: Нет (DHT включён)
.torrent скачан  0
 


     Отправить личное сообщение
   
Страница 1 из 1
Показать сообщения за:  Поле сортировки  
Начать новую тему Ответить на тему


Сейчас этот форум просматривают: нет зарегистрированных пользователей и гости: 0


Вы не можете начинать темы
Вы не можете отвечать на сообщения
Вы не можете редактировать свои сообщения
Вы не можете удалять свои сообщения
Вы не можете добавлять вложения

Перейти:  
cron