Начать новую тему Ответить на тему
Статистика раздачи
Размер: 275.09 МБ | Добавлен: 16 мар 2014, 00:16 | Скачали: 0
Сидеров: 0  [0 байт/сек]    Личеров: 1  [0 байт/сек]
Пред. тема | След. тема 

Автор
Сообщение

СообщениеДобавлено: 16 мар 2014, 00:16 

Ответить с цитатой 

Electric Light Orchestra - Face The Music (1975)

Год: 1975
Жанр: Classic Rock, Symphonic Rock
Лейбл: Jet Records, Epic Associated, ‎Legacy
Каталог #: ZK 57184
Продолжительность: 00:36:26
Кодек: FLAC
Тип рипа: image + .cue
Битрейт: Lossless
Треклист:
01. Fire On High (5:31)
02. Waterfall (4:11)
03. Evil Woman (4:35)
04. Nightrider (4:26)
05. Poker (3:32)
06. Strange Magic (4:30)
07. Down Home Town (3:53)
08. One Summer Dream (5:47)
Код:
Код:
Exact Audio Copy V1.0 beta 3 from 29. August 2011

EAC extraction logfile from 20. November 2013, 20:40

Electric Light Orchestra / Face The Music (Mastersound Gold Edition)

Used drive  : PLEXTOR DVDR   PX-810SA   Adapter: 2  ID: 0

Read mode               : Secure
Utilize accurate stream : Yes
Defeat audio cache      : Yes
Make use of C2 pointers : No

Read offset correction                      : 48
Overread into Lead-In and Lead-Out          : No
Fill up missing offset samples with silence : Yes
Delete leading and trailing silent blocks   : No
Null samples used in CRC calculations       : Yes
Used interface                              : Installed external ASPI interface

Used output format              : User Defined Encoder
Selected bitrate                : 1024 kBit/s
Quality                         : High
Add ID3 tag                     : No
Command line compressor         : C:\Program Files (x86)\Exact Audio Copy\Flac\flac.exe
Additional command line options : -8 -V -T "Date=%year%" -T "Genre=%genre%" -T "COMMENT=ripped by bvstudio®" %source%

TOC of the extracted CD

     Track |   Start  |  Length  | Start sector | End sector
    ---------------------------------------------------------
        1  |  0:32.42 |  5:30.68 |      2442    |    27259
        2  |  6:03.35 |  4:11.22 |     27260    |    46106
        3  | 10:14.57 |  4:35.13 |     46107    |    66744
        4  | 14:49.70 |  4:26.07 |     66745    |    86701
        5  | 19:16.02 |  3:31.65 |     86702    |   102591
        6  | 22:47.67 |  4:29.53 |    102592    |   122819
        7  | 27:17.45 |  3:53.27 |    122820    |   140321
        8  | 31:10.72 |  5:47.33 |    140322    |   166379

Range status and errors

Selected range

     Filename F:\Electric Light Orchestra\1975 - Face The Music (1993 - Epic • Jet. SBM Gold Disc. USA - ZK 57184)\Electric Light Orchestra - Face The Music (Mastersound Gold Edition).wav

     Peak level 100.0 %
     Extraction speed 6.9 X
     Range quality 99.9 %
     Test CRC 434AA9D6
     Copy CRC 434AA9D6
     Copy OK

No errors occurred

AccurateRip summary

Track  1  accurately ripped (confidence 11)  [6DE8B0A2]  (AR v2)
Track  2  accurately ripped (confidence 11)  [DAB46640]  (AR v2)
Track  3  accurately ripped (confidence 11)  [F49702EB]  (AR v2)
Track  4  accurately ripped (confidence 11)  [1AAB3E7E]  (AR v2)
Track  5  accurately ripped (confidence 11)  [4B8AE4C4]  (AR v2)
Track  6  accurately ripped (confidence 11)  [A08F0FE7]  (AR v2)
Track  7  accurately ripped (confidence 11)  [B3DEE01B]  (AR v2)
Track  8  accurately ripped (confidence 11)  [C51BFA94]  (AR v2)

All tracks accurately ripped

End of status report

---- CUETools DB Plugin V2.1.5

[CTDB TOCID: veMYHNSx8wcFuvLhpSG..G_jZDU-] found
Submit result: veMYHNSx8wcFuvLhpSG..G_jZDU- has been confirmed
Track | CTDB Status
  1   | (1/1) Accurately ripped
  2   | (1/1) Accurately ripped
  3   | (1/1) Accurately ripped
  4   | (1/1) Accurately ripped
  5   | (1/1) Accurately ripped
  6   | (1/1) Accurately ripped
  7   | (1/1) Accurately ripped
  8   | (1/1) Accurately ripped

==== Log checksum 63F4F21C3223A04856127BCD8E4547744DB80F9BE725C127F0CF8F0989B85DAC ====

Код:
Код:
-----------------------

DON'T MODIFY THIS FILE

-----------------------

PERFORMER: auCDtect Task Manager, ver. 1.6.0 RC1 build 1.6.0.1
Copyright (c) 2008-2010 y-soft. All rights reserved
http:/y-soft.org

ANALYZER: auCDtect: CD records authenticity detector, version 0.8.2
Copyright (c) 2004 Oleg Berngardt. All rights reserved.
Copyright (c) 2004 Alexander Djourik. All rights reserved.

FILE: Electric Light Orchestra - Face The Music (Mastersound Gold Edition).flac
  Size: 231343901 Hash: BE993C6EFA654203FEBB16790249FDDB Accuracy: -m0
  Conclusion: CDDA 100%
  Signature: 0A997034888F799CD1E4B0E26E0D70F028F4356F

Код:
Код:
REM GENRE Rock
REM DATE 1975
REM DISCID 7B088A08
REM COMMENT "ExactAudioCopy v1.0b3"
PERFORMER "Electric Light Orchestra"
TITLE "Face The Music (Mastersound Gold Edition)"
FILE "Electric Light Orchestra - Face The Music (Mastersound Gold Edition).flac" WAVE
  TRACK 01 AUDIO
    TITLE "Fire On High"
    PERFORMER "Electric Light Orchestra"
    INDEX 00 00:00:00
    INDEX 01 00:32:42
  TRACK 02 AUDIO
    TITLE "Waterfall"
    PERFORMER "Electric Light Orchestra"
    INDEX 01 06:03:35
  TRACK 03 AUDIO
    TITLE "Evil Woman"
    PERFORMER "Electric Light Orchestra"
    INDEX 01 10:14:57
  TRACK 04 AUDIO
    TITLE "Nightrider"
    PERFORMER "Electric Light Orchestra"
    INDEX 01 14:49:70
  TRACK 05 AUDIO
    TITLE "Poker"
    PERFORMER "Electric Light Orchestra"
    INDEX 00 19:14:07
    INDEX 01 19:16:02
  TRACK 06 AUDIO
    TITLE "Strange Magic"
    PERFORMER "Electric Light Orchestra"
    INDEX 00 22:47:12
    INDEX 01 22:47:67
  TRACK 07 AUDIO
    TITLE "Down Home Town"
    PERFORMER "Electric Light Orchestra"
    INDEX 01 27:17:45
  TRACK 08 AUDIO
    TITLE "One Summer Dream"
    PERFORMER "Electric Light Orchestra"
    INDEX 01 31:10:72

Код:
Код:
[CUETools log; Date: 07.01.2014 8:57:18; Version: 2.1.4]
Pregap length 00:32:42.
[CTDB TOCID: veMYHNSx8wcFuvLhpSG..G_jZDU-] found.
Track | CTDB Status
  1   | (2/2) Accurately ripped
  2   | (2/2) Accurately ripped
  3   | (2/2) Accurately ripped
  4   | (2/2) Accurately ripped
  5   | (2/2) Accurately ripped
  6   | (2/2) Accurately ripped
  7   | (2/2) Accurately ripped
  8   | (2/2) Accurately ripped
[AccurateRip ID: 000b9e1a-004c2855-7b088a08] found.
Track   [  CRC   |   V2   ] Status
 01     [e1b4472c|6de8b0a2] (15+13/28) Accurately ripped
 02     [6b83f9cd|dab46640] (14+13/27) Accurately ripped
 03     [31de5a99|f49702eb] (14+13/27) Accurately ripped
 04     [0ac33bcf|1aab3e7e] (13+13/26) Accurately ripped
 05     [6ab88b85|4b8ae4c4] (14+13/27) Accurately ripped
 06     [6e786ba9|a08f0fe7] (14+13/27) Accurately ripped
 07     [5f82c4ac|b3dee01b] (13+13/26) Accurately ripped
 08     [10dab2e1|c51bfa94] (15+13/28) Accurately ripped

Track Peak [ CRC32  ] [W/O NULL] [  LOG   ]
 --  100,0 [434AA9D6] [6D0B1B3E]   CRC32
 01   97,2 [0B815969] [7F7ACFE0]
 02   83,4 [16733BB3] [F18F0F1A]
 03   98,0 [5EA3E7F6] [9CBC2318]
 04  100,0 [798738C5] [E1E7CAE5]
 05   92,5 [4DA35FCF] [35207D1C]
 06   86,2 [FEA93AA8] [993A1748]
 07   83,3 [E5AF589C] [51751774]
 08  100,0 [A16B622B] [D17BF28F]

Правила, инструкции, FAQ!!!
Торрент  Добавлен [16 мар 2014, 00:16] Скачать торрент Магнет ссылка
Скачать торрент
[ Размер 12.44 КБ / Просмотров 34 ]

Статус  
 
Размер  275.09 МБ
Приватный: Нет (DHT включён)
.torrent скачан  0
 


     Отправить личное сообщение
   
Страница 1 из 1
Показать сообщения за:  Поле сортировки  
Начать новую тему Ответить на тему


Сейчас этот форум просматривают: нет зарегистрированных пользователей и гости: 0


Вы не можете начинать темы
Вы не можете отвечать на сообщения
Вы не можете редактировать свои сообщения
Вы не можете удалять свои сообщения
Вы не можете добавлять вложения

Перейти:  
cron
cron