Начать новую тему Ответить на тему
Статистика раздачи
Размер: 259.23 МБ | Добавлен: 16 мар 2014, 00:16 | Скачали: 0
Сидеров: 1  [0 байт/сек]    Личеров: 1  [0 байт/сек]
Пред. тема | След. тема 

Автор
Сообщение

СообщениеДобавлено: 16 мар 2014, 00:16 

Ответить с цитатой 

Electric Light Orchestra - Eldorado (1974)

Год: 1974
Жанр: Classic Rock, Symphonic Rock
Лейбл: Audio Fidelity
Каталог #: GZS-1041
Продолжительность: 00:39:21
Кодек: FLAC
Тип рипа: image + .cue
Битрейт: Lossless
Треклист:
01. Eldorado Overture (2:13)
02. Can't Get It Out Of My Head (4:22)
03. Boy Blue (5:19)
04. Laredo Tornado (5:30)
05. Poor Boy (The Greenwood) (3:03)
06. Mister Kingdom (5:30)
07. Nobody's Child (3:57)
08. Illusions In G Major (2:37)
09. Eldorado (5:18)
10. Eldorado Finale (1:32)
Код:
Код:
Exact Audio Copy V1.0 beta 3 from 29. August 2011

EAC extraction logfile from 20. November 2013, 20:23

Electric Light Orchestra / Eldorado

Used drive  : PLEXTOR DVDR   PX-810SA   Adapter: 2  ID: 0

Read mode               : Secure
Utilize accurate stream : Yes
Defeat audio cache      : Yes
Make use of C2 pointers : No

Read offset correction                      : 48
Overread into Lead-In and Lead-Out          : No
Fill up missing offset samples with silence : Yes
Delete leading and trailing silent blocks   : No
Null samples used in CRC calculations       : Yes
Used interface                              : Installed external ASPI interface

Used output format              : User Defined Encoder
Selected bitrate                : 1024 kBit/s
Quality                         : High
Add ID3 tag                     : No
Command line compressor         : C:\Program Files (x86)\Exact Audio Copy\Flac\flac.exe
Additional command line options : -8 -V -T "Date=%year%" -T "Genre=%genre%" -T "COMMENT=ripped by bvstudio®" %source%

TOC of the extracted CD

     Track |   Start  |  Length  | Start sector | End sector
    ---------------------------------------------------------
        1  |  0:00.00 |  2:12.65 |         0    |     9964
        2  |  2:12.65 |  4:21.63 |      9965    |    29602
        3  |  6:34.53 |  5:19.05 |     29603    |    53532
        4  | 11:53.58 |  5:29.65 |     53533    |    78272
        5  | 17:23.48 |  3:03.07 |     78273    |    92004
        6  | 20:26.55 |  5:30.28 |     92005    |   116782
        7  | 25:57.08 |  3:56.42 |    116783    |   134524
        8  | 29:53.50 |  2:37.28 |    134525    |   146327
        9  | 32:31.03 |  5:17.40 |    146328    |   170142
       10  | 37:48.43 |  1:32.17 |    170143    |   177059

Range status and errors

Selected range

     Filename F:\Electric Light Orchestra\1974 - Eldorado (1993 - DCC Compact Classics. Gold Disc. Japan - GZS 1041)\Electric Light Orchestra - Eldorado.wav

     Peak level 100.0 %
     Extraction speed 6.6 X
     Range quality 100.0 %
     Test CRC 235DA7E5
     Copy CRC 235DA7E5
     Copy OK

No errors occurred

AccurateRip summary

Track  1  accurately ripped (confidence 12)  [31631749]  (AR v2)
Track  2  accurately ripped (confidence 12)  [B4000AA0]  (AR v2)
Track  3  accurately ripped (confidence 12)  [67CF0C25]  (AR v2)
Track  4  accurately ripped (confidence 12)  [D4C75DCF]  (AR v2)
Track  5  accurately ripped (confidence 12)  [50B5C7DF]  (AR v2)
Track  6  accurately ripped (confidence 12)  [023A2D13]  (AR v2)
Track  7  accurately ripped (confidence 12)  [8DF34C8C]  (AR v2)
Track  8  accurately ripped (confidence 12)  [09C1CF3F]  (AR v2)
Track  9  accurately ripped (confidence 12)  [81F0B56F]  (AR v2)
Track 10  accurately ripped (confidence 12)  [2DD8F070]  (AR v2)

All tracks accurately ripped

End of status report

---- CUETools DB Plugin V2.1.5

[CTDB TOCID: GtvgfEROfcN7hQiJP5.303wABJI-] found
Submit result: GtvgfEROfcN7hQiJP5.303wABJI- has been confirmed
Track | CTDB Status
  1   | (9/9) Accurately ripped
  2   | (9/9) Accurately ripped
  3   | (9/9) Accurately ripped
  4   | (9/9) Accurately ripped
  5   | (9/9) Accurately ripped
  6   | (9/9) Accurately ripped
  7   | (9/9) Accurately ripped
  8   | (9/9) Accurately ripped
  9   | (9/9) Accurately ripped
 10   | (9/9) Accurately ripped

==== Log checksum 4E26841C2FADA641732C5DA9DE12C4754F191B56B959C0FB32A3E3F627D81C1B ====

Код:
Код:
-----------------------

DON'T MODIFY THIS FILE

-----------------------

PERFORMER: auCDtect Task Manager, ver. 1.6.0 RC1 build 1.6.0.1
Copyright (c) 2008-2010 y-soft. All rights reserved
http:/y-soft.org

ANALYZER: auCDtect: CD records authenticity detector, version 0.8.2
Copyright (c) 2004 Oleg Berngardt. All rights reserved.
Copyright (c) 2004 Alexander Djourik. All rights reserved.

FILE: Electric Light Orchestra - Eldorado.flac
  Size: 245137840 Hash: 646CD5F3A2C4EBBEC21423BD266AD7D9 Accuracy: -m0
  Conclusion: CDDA 100%
  Signature: C2897EA64D1C3847F552B5DE5B0C877B7D11B9CB

Код:
Код:
REM GENRE Rock
REM DATE 1974
REM DISCID 8709380A
REM COMMENT "ExactAudioCopy v1.0b3"
PERFORMER "Electric Light Orchestra"
TITLE "Eldorado"
FILE "Electric Light Orchestra - Eldorado.flac" WAVE
  TRACK 01 AUDIO
    TITLE "Eldorado Overture"
    PERFORMER "Electric Light Orchestra"
    INDEX 01 00:00:00
  TRACK 02 AUDIO
    TITLE "Can't Get It Out Of My Head"
    PERFORMER "Electric Light Orchestra"
    INDEX 01 02:12:65
  TRACK 03 AUDIO
    TITLE "Boy Blue"
    PERFORMER "Electric Light Orchestra"
    INDEX 01 06:34:53
  TRACK 04 AUDIO
    TITLE "Laredo Tornado"
    PERFORMER "Electric Light Orchestra"
    INDEX 01 11:53:58
  TRACK 05 AUDIO
    TITLE "Poor Boy (The Greenwood)"
    PERFORMER "Electric Light Orchestra"
    INDEX 01 17:23:48
  TRACK 06 AUDIO
    TITLE "Mister Kingdom"
    PERFORMER "Electric Light Orchestra"
    INDEX 00 20:22:50
    INDEX 01 20:26:55
  TRACK 07 AUDIO
    TITLE "Nobody's Child"
    PERFORMER "Electric Light Orchestra"
    INDEX 01 25:57:08
  TRACK 08 AUDIO
    TITLE "Illusions In G Major"
    PERFORMER "Electric Light Orchestra"
    INDEX 01 29:53:50
  TRACK 09 AUDIO
    TITLE "Eldorado"
    PERFORMER "Electric Light Orchestra"
    INDEX 01 32:31:03
  TRACK 10 AUDIO
    TITLE "Eldorado Finale"
    PERFORMER "Electric Light Orchestra"
    INDEX 01 37:48:43

Код:
Код:
[CUETools log; Date: 07.01.2014 9:18:10; Version: 2.1.4]
[CTDB TOCID: GtvgfEROfcN7hQiJP5.303wABJI-] found.
Track | CTDB Status
  1   | (11/11) Accurately ripped
  2   | (11/11) Accurately ripped
  3   | (11/11) Accurately ripped
  4   | (11/11) Accurately ripped
  5   | (11/11) Accurately ripped
  6   | (11/11) Accurately ripped
  7   | (11/11) Accurately ripped
  8   | (11/11) Accurately ripped
  9   | (11/11) Accurately ripped
 10   | (11/11) Accurately ripped
[AccurateRip ID: 000f625a-007bfe26-8709380a] found.
Track   [  CRC   |   V2   ] Status
 01     [30f2f484|31631749] (21+13/38) Accurately ripped
 02     [12f673df|b4000aa0] (22+13/39) Accurately ripped
 03     [65864b0a|67cf0c25] (22+13/39) Accurately ripped
 04     [c2c6f22c|d4c75dcf] (20+13/37) Accurately ripped
 05     [5b7c2f72|50b5c7df] (22+13/39) Accurately ripped
 06     [22e0a3be|023a2d13] (20+13/37) Accurately ripped
 07     [e8835e94|8df34c8c] (20+13/37) Accurately ripped
 08     [ead2ae5d|09c1cf3f] (20+13/37) Accurately ripped
 09     [9e502ffd|81f0b56f] (20+13/37) Accurately ripped
 10     [96d93cfa|2dd8f070] (20+13/37) Accurately ripped
Offsetted by -66:
 01     [b6f7707f] (02/38) Accurately ripped
 02     [a2317f47] (02/39) Accurately ripped
 03     [c8b50e92] (02/39) Accurately ripped
 04     [eed1a70d] (02/37) Accurately ripped
 05     [6024ac5c] (02/39) Accurately ripped
 06     [1ded5035] (02/37) Accurately ripped
 07     [2f1669a4] (02/37) Accurately ripped
 08     [fde35a23] (02/37) Accurately ripped
 09     [80ea9d6b] (02/37) Accurately ripped
 10     [f4d20463] (02/37) Accurately ripped
Offsetted by 6:
 01     [c4150f79] (02/38) Accurately ripped
 02     [9a119dfc] (02/39) Accurately ripped
 03     [8cdce778] (02/39) Accurately ripped
 04     [c5272bc5] (02/37) Accurately ripped
 05     [a5bd2043] (02/39) Accurately ripped
 06     [34f4a7b8] (02/37) Accurately ripped
 07     [3332b85d] (02/37) Accurately ripped
 08     [bc1cbfc6] (02/37) Accurately ripped
 09     [a80ac608] (02/37) Accurately ripped
 10     [d74b9c5b] (02/37) Accurately ripped
Offsetted by -18:
 01     [a0f52aff] (00/38) No match (V2 was not tested)
 02     [b8f434cd] (00/39) No match (V2 was not tested)
 03     [c55733b0] (00/39) No match (V2 was not tested)
 04     [cf9def3c] (00/37) No match (V2 was not tested)
 05     [b6a5ec9d] (00/39) No match (V2 was not tested)
 06     [35c8c615] (00/37) No match (V2 was not tested)
 07     [8c8eee8f] (00/37) No match (V2 was not tested)
 08     [e1d91ef6] (00/37) No match (V2 was not tested)
 09     [cdf6cd10] (00/37) No match (V2 was not tested)
 10     [81a9efa4] (00/37) No match (V2 was not tested)

Track Peak [ CRC32  ] [W/O NULL] [  LOG   ]
 --  100,0 [235DA7E5] [8549D442]   CRC32
 01  100,0 [5F83ABBA] [A7254476]
 02  100,0 [CCA477B5] [609C70C2]
 03  100,0 [2AB7C6E8] [E16133E2]
 04  100,0 [07EBE973] [020A00C7]
 05  100,0 [B9649238] [A7D22213]
 06  100,0 [6269F86C] [05F9694C]
 07  100,0 [B36AD4FB] [C97FCE79]
 08  100,0 [04657A3B] [9B54DBD6]
 09  100,0 [3EEC5A59] [ED3FCF49]
 10  100,0 [D1BAA2D3] [978D95F0]

Правила, инструкции, FAQ!!!
Торрент  Добавлен [16 мар 2014, 00:16] Скачать торрент Магнет ссылка
Скачать торрент
[ Размер 11.63 КБ / Просмотров 31 ]

Статус  
 
Размер  259.23 МБ
Приватный: Нет (DHT включён)
.torrent скачан  0
 


     Отправить личное сообщение
   
Страница 1 из 1
Показать сообщения за:  Поле сортировки  
Начать новую тему Ответить на тему


Сейчас этот форум просматривают: нет зарегистрированных пользователей и гости: 0


Вы не можете начинать темы
Вы не можете отвечать на сообщения
Вы не можете редактировать свои сообщения
Вы не можете удалять свои сообщения
Вы не можете добавлять вложения

Перейти:  
cron