Начать новую тему Ответить на тему
Статистика раздачи
Размер: 260.44 МБ | Добавлен: 16 мар 2014, 00:07 | Скачали: 0
Сидеров: 2  [0 байт/сек]    Личеров: 3  [0 байт/сек]
Пред. тема | След. тема 

Автор
Сообщение

СообщениеДобавлено: 16 мар 2014, 00:07 

Ответить с цитатой 

Electric Light Orchestra - Discovery (1979)

Год: 1979
Жанр: Classic Rock, Symphonic Rock
Лейбл: Jet Records
Каталог #: ZK 35769
Продолжительность: 00:38:59
Кодек: FLAC
Тип рипа: image + .cue
Битрейт: Lossless
Треклист:
01. Shine A Little Love (4:43)
02. Confusion (3:43)
03. Need Her Love (5:12)
04. The Diary of Horace Whimp (4:18)
05. Last Train to London (4:33)
06. Midnight Blue (4:19)
07. On the Run (3:56)
08. Wishing (4:14)
09. Don't Bring Me Down (4:02)
Код:
Код:

EAC extraction logfile from 27. April 2013, 21:45

Electric Light Orchestra / Discovery

Used drive  : PIONEER DVD-RW  DVR-216D   Adapter: 1  ID: 0

Read mode               : Secure
Utilize accurate stream : Yes
Defeat audio cache      : Yes
Make use of C2 pointers : No

Read offset correction                      : 96
Overread into Lead-In and Lead-Out          : No
Fill up missing offset samples with silence : Yes
Delete leading and trailing silent blocks   : No
Null samples used in CRC calculations       : Yes
Used interface                              : Native Win32 interface for Win NT & 2000

Used output format : Internal WAV Routines
Sample format      : 44.100 Hz; 16 Bit; Stereo

TOC of the extracted CD

     Track |   Start  |  Length  | Start sector | End sector
    ---------------------------------------------------------
        1  |  0:00.00 |  4:43.10 |         0    |    21234
        2  |  4:43.10 |  3:42.52 |     21235    |    37936
        3  |  8:25.62 |  5:11.65 |     37937    |    61326
        4  | 13:37.52 |  4:17.38 |     61327    |    80639
        5  | 17:55.15 |  4:32.62 |     80640    |   101101
        6  | 22:28.02 |  4:19.10 |    101102    |   120536
        7  | 26:47.12 |  3:55.73 |    120537    |   138234
        8  | 30:43.10 |  4:13.60 |    138235    |   157269
        9  | 34:56.70 |  4:02.05 |    157270    |   175424

Range status and errors

Selected range

     Filename d:\4work\1\cue\nonorig.wav

     Peak level 100.0 %
     Range quality 100.0 %
     Test CRC BF4AD29E
     Copy CRC BF4AD29E
     Copy OK

No errors occurred

AccurateRip summary

Track  1  accurately ripped (confidence 5)  [C5527668]
Track  2  accurately ripped (confidence 5)  [2C175AF1]
Track  3  accurately ripped (confidence 4)  [5BE41DBF]
Track  4  accurately ripped (confidence 4)  [206DCB36]
Track  5  accurately ripped (confidence 4)  [2A3919B9]
Track  6  accurately ripped (confidence 4)  [38155304]
Track  7  accurately ripped (confidence 5)  [51AD6CD5]
Track  8  accurately ripped (confidence 5)  [9CD643E9]
Track  9  accurately ripped (confidence 4)  [23C63898]

All tracks accurately ripped

End of status report

Код:
Код:
-----------------------

DON'T MODIFY THIS FILE

-----------------------

PERFORMER: auCDtect Task Manager, ver. 1.6.0 RC1 build 1.6.0.1
Copyright (c) 2008-2010 y-soft. All rights reserved
http:/y-soft.org

ANALYZER: auCDtect: CD records authenticity detector, version 0.8.2
Copyright (c) 2004 Oleg Berngardt. All rights reserved.
Copyright (c) 2004 Alexander Djourik. All rights reserved.

FILE: Electric Light Orchestra - Discovery.flac
  Size: 261155772 Hash: 9C71277276342FC9556B27D6B1A43A66 Accuracy: -m0
  Conclusion: CDDA 100%
  Signature: 8CC19E5A5C4A2EE2A5E9DDE3A0542666CB189376

Код:
Код:
REM ACCURATERIPID 000da30c-0063a6a1-7c092309
REM DISCID 7C092309
PERFORMER "Electric Light Orchestra"
TITLE "Discovery (ZK 35769 DIDP US)"
REM DATE 1979
REM COMMENT "Recorded at Musicland Studios Munich W. Germany."
FILE "Electric Light Orchestra - Discovery.flac" WAVE
  TRACK 01 AUDIO
    PERFORMER "Electric Light Orchestra"
    TITLE "Shine A Little Love"
    INDEX 01 00:00:00
  TRACK 02 AUDIO
    PERFORMER "Electric Light Orchestra"
    TITLE "Confusion"
    INDEX 00 04:41:01
    INDEX 01 04:43:10
  TRACK 03 AUDIO
    PERFORMER "Electric Light Orchestra"
    TITLE "Need Her Love"
    INDEX 00 08:23:02
    INDEX 01 08:25:62
  TRACK 04 AUDIO
    PERFORMER "Electric Light Orchestra"
    TITLE "The Diary of Horace Whimp"
    INDEX 00 13:36:72
    INDEX 01 13:37:52
  TRACK 05 AUDIO
    PERFORMER "Electric Light Orchestra"
    TITLE "Last Train to London"
    INDEX 00 17:53:45
    INDEX 01 17:55:15
  TRACK 06 AUDIO
    PERFORMER "Electric Light Orchestra"
    TITLE "Midnight Blue"
    INDEX 00 22:26:37
    INDEX 01 22:28:02
  TRACK 07 AUDIO
    PERFORMER "Electric Light Orchestra"
    TITLE "On the Run"
    INDEX 00 26:45:62
    INDEX 01 26:47:12
  TRACK 08 AUDIO
    PERFORMER "Electric Light Orchestra"
    TITLE "Wishing"
    INDEX 01 30:43:10
  TRACK 09 AUDIO
    PERFORMER "Electric Light Orchestra"
    TITLE "Don't Bring Me Down"
    INDEX 01 34:56:70

Код:
Код:
[CUETools log; Date: 09.01.2014 23:06:26; Version: 2.1.4]
[CTDB TOCID: hL2qV_RI_l1EG49DJ.7UeWYQNnA-] found.
Track | CTDB Status
  1   | (10/10) Accurately ripped
  2   | (10/10) Accurately ripped
  3   | (10/10) Accurately ripped
  4   | (10/10) Accurately ripped
  5   | (10/10) Accurately ripped
  6   | (10/10) Accurately ripped
  7   | (10/10) Accurately ripped
  8   | ( 9/10) Accurately ripped
  9   | ( 9/10) Accurately ripped
[AccurateRip ID: 000da30c-0063a6a1-7c092309] found.
Track   [  CRC   |   V2   ] Status
 01     [c5527668|7106772e] (06+00/40) Accurately ripped
 02     [2c175af1|dc827780] (06+00/39) Accurately ripped
 03     [5be41dbf|c744ff8e] (05+00/39) Accurately ripped
 04     [206dcb36|251a2093] (05+00/39) Accurately ripped
 05     [2a3919b9|0afe213f] (05+00/39) Accurately ripped
 06     [38155304|76fd6fd5] (05+00/38) Accurately ripped
 07     [51ad6cd5|23d13ec5] (06+00/39) Accurately ripped
 08     [9cd643e9|615eb0b8] (06+00/40) Accurately ripped
 09     [23c63898|b8ad0883] (05+00/38) Accurately ripped
Offsetted by 2059:
 01     [acd198db] (02/40) Accurately ripped
 02     [8616020e] (02/39) Accurately ripped
 03     [0ee3f9bb] (02/39) Accurately ripped
 04     [ce4d6ce6] (02/39) Accurately ripped
 05     [6aa20935] (02/39) Accurately ripped
 06     [2715692a] (02/38) Accurately ripped
 07     [a3f8453a] (02/39) Accurately ripped
 08     [c7ce9299] (02/40) Accurately ripped
 09     [3fac0fe4] (02/38) Accurately ripped
Offsetted by 2577:
 01     [8bec3c31] (17/40) Accurately ripped
 02     [cc18e6d8] (17/39) Accurately ripped
 03     [1cd70273] (17/39) Accurately ripped
 04     [98919f46] (17/39) Accurately ripped
 05     [d87590ed] (17/39) Accurately ripped
 06     [0eca1656] (17/38) Accurately ripped
 07     [672b0c60] (17/39) Accurately ripped
 08     [12e7490d] (17/40) Accurately ripped
 09     [66cedf6f] (16/38) Accurately ripped
Offsetted by 2095:
 01     [d30ec0df] (00/40) No match (V2 was not tested)
 02     [1e39caca] (00/39) No match (V2 was not tested)
 03     [9254be0b] (00/39) No match (V2 was not tested)
 04     [0fc1db26] (00/39) No match (V2 was not tested)
 05     [1657c785] (00/39) No match (V2 was not tested)
 06     [5cbf2032] (00/38) No match (V2 was not tested)
 07     [7c9de62e] (00/39) No match (V2 was not tested)
 08     [1ff08ea1] (00/40) No match (V2 was not tested)
 09     [de8fb542] (00/38) No match (V2 was not tested)
Offsetted by 2359:
 01     [40cf3ba7] (00/40) No match (V2 was not tested)
 02     [cf403582] (00/39) No match (V2 was not tested)
 03     [563a5dab] (00/39) No match (V2 was not tested)
 04     [9a6d03a6] (00/39) No match (V2 was not tested)
 05     [ac373b25] (00/39) No match (V2 was not tested)
 06     [3b9bb3c2] (00/38) No match (V2 was not tested)
 07     [da181521] (00/39) No match (V2 was not tested)
 08     [b27fec36] (00/40) No match (V2 was not tested)
 09     [c115b74e] (00/38) No match (V2 was not tested)

Track Peak [ CRC32  ] [W/O NULL] [  LOG   ]
 --  100,0 [BF4AD29E] [433E10D8]   CRC32
 01  100,0 [C1A4AB73] [BCDB0BFB]
 02   88,8 [54E46790] [A3CC9BFF]
 03   79,2 [EEDB271F] [B38E70E3]
 04  100,0 [4EFFB931] [9FC712D5]
 05   98,5 [E6615D9D] [91861E2B]
 06   96,8 [9DDFDE0E] [FFCC2B4B]
 07   93,2 [0DFC62E5] [F65D48C4]
 08   90,4 [29568DD2] [30432256]
 09   84,3 [D7D9D07E] [61963770]

Правила, инструкции, FAQ!!!
Торрент  Добавлен [16 мар 2014, 00:07] Скачать торрент Магнет ссылка
Скачать торрент
[ Размер 11.35 КБ / Просмотров 27 ]

Статус  
 
Размер  260.44 МБ
Приватный: Нет (DHT включён)
.torrent скачан  0
 


     Отправить личное сообщение
   
Страница 1 из 1
Показать сообщения за:  Поле сортировки  
Начать новую тему Ответить на тему


Сейчас этот форум просматривают: нет зарегистрированных пользователей и гости: 0


Вы не можете начинать темы
Вы не можете отвечать на сообщения
Вы не можете редактировать свои сообщения
Вы не можете удалять свои сообщения
Вы не можете добавлять вложения

Перейти:  
cron
cron