Начать новую тему Ответить на тему
Статистика раздачи
Размер: 308.38 МБ | Добавлен: 16 мар 2014, 00:07 | Скачали: 0
Сидеров: 3  [0 байт/сек]    Личеров: 2  [0 байт/сек]
Пред. тема | След. тема 

Автор
Сообщение

СообщениеДобавлено: 16 мар 2014, 00:07 

Ответить с цитатой 

Electric Light Orchestra - Discovery (1979)

Год: 1979
Жанр: Classic Rock, Symphonic Rock
Лейбл: Epic, Jet Records
Каталог #: ZK 64646
Продолжительность: 00:39:01
Кодек: FLAC
Тип рипа: image + .cue
Битрейт: Lossless
Треклист:
01. Shine A Little Love (4:43)
02. Confusion (3:42)
03. Need Her Love (5:12)
04. Diary Of Horace Wimp (4:19)
05. Last Train To London (4:33)
06. Midnight Blue (4:19)
07. On The Run (3:56)
08. Wishing (4:14)
09. Don't Bring Me Down (4:03)
Код:
Код:
Exact Audio Copy V1.0 beta 3 from 29. August 2011

EAC extraction logfile from 20. November 2013, 22:06

Electric Light Orchestra / Discovery (Mastersound Gold Edition)

Used drive  : PLEXTOR DVDR   PX-810SA   Adapter: 2  ID: 0

Read mode               : Secure
Utilize accurate stream : Yes
Defeat audio cache      : Yes
Make use of C2 pointers : No

Read offset correction                      : 48
Overread into Lead-In and Lead-Out          : No
Fill up missing offset samples with silence : Yes
Delete leading and trailing silent blocks   : No
Null samples used in CRC calculations       : Yes
Used interface                              : Installed external ASPI interface

Used output format              : User Defined Encoder
Selected bitrate                : 1024 kBit/s
Quality                         : High
Add ID3 tag                     : No
Command line compressor         : C:\Program Files (x86)\Exact Audio Copy\Flac\flac.exe
Additional command line options : -8 -V -T "Date=%year%" -T "Genre=%genre%" -T "COMMENT=ripped by bvstudio®" %source%

TOC of the extracted CD

     Track |   Start  |  Length  | Start sector | End sector
    ---------------------------------------------------------
        1  |  0:00.00 |  4:43.10 |         0    |    21234
        2  |  4:43.10 |  3:42.33 |     21235    |    37917
        3  |  8:25.43 |  5:11.52 |     37918    |    61294
        4  | 13:37.20 |  4:19.30 |     61295    |    80749
        5  | 17:56.50 |  4:32.38 |     80750    |   101187
        6  | 22:29.13 |  4:18.72 |    101188    |   120609
        7  | 26:48.10 |  3:55.63 |    120610    |   138297
        8  | 30:43.73 |  4:13.52 |    138298    |   157324
        9  | 34:57.50 |  4:02.68 |    157325    |   175542

Range status and errors

Selected range

     Filename F:\Electric Light Orchestra\1979 - Discovery (1993 - Epic • Jet. SBM Gold Disc. USA - ZK 64646)\Electric Light Orchestra - Discovery (Mastersound Gold Edition).wav

     Peak level 100.0 %
     Extraction speed 7.0 X
     Range quality 99.9 %
     Test CRC 648068A9
     Copy CRC 648068A9
     Copy OK

No errors occurred

AccurateRip summary

Track  1  accurately ripped (confidence 8)  [A229E8E6]  (AR v2)
Track  2  accurately ripped (confidence 8)  [85E91A99]  (AR v2)
Track  3  accurately ripped (confidence 8)  [88771EE4]  (AR v2)
Track  4  accurately ripped (confidence 8)  [32A77B90]  (AR v2)
Track  5  accurately ripped (confidence 8)  [96E4F5DC]  (AR v2)
Track  6  accurately ripped (confidence 8)  [61A88D2C]  (AR v2)
Track  7  accurately ripped (confidence 8)  [002456CB]  (AR v2)
Track  8  accurately ripped (confidence 8)  [7E413292]  (AR v2)
Track  9  accurately ripped (confidence 8)  [6C91EB5C]  (AR v2)

All tracks accurately ripped

End of status report

---- CUETools DB Plugin V2.1.5

[CTDB TOCID: pzdlG3AetEUMJ66te3MImxhHMVQ-] found
Submit result: pzdlG3AetEUMJ66te3MImxhHMVQ- has been confirmed
Track | CTDB Status
  1   | (4/4) Accurately ripped
  2   | (4/4) Accurately ripped
  3   | (4/4) Accurately ripped
  4   | (4/4) Accurately ripped
  5   | (4/4) Accurately ripped
  6   | (4/4) Accurately ripped
  7   | (4/4) Accurately ripped
  8   | (4/4) Accurately ripped
  9   | (4/4) Accurately ripped

==== Log checksum 0FB786B088378736E469859D81DB961DFC3F22A900E3F784A3E77D3884B43247 ====

Код:
Код:
-----------------------

DON'T MODIFY THIS FILE

-----------------------

PERFORMER: auCDtect Task Manager, ver. 1.6.0 RC1 build 1.6.0.1
Copyright (c) 2008-2010 y-soft. All rights reserved
http:/y-soft.org

ANALYZER: auCDtect: CD records authenticity detector, version 0.8.2
Copyright (c) 2004 Oleg Berngardt. All rights reserved.
Copyright (c) 2004 Alexander Djourik. All rights reserved.

FILE: Electric Light Orchestra - Discovery (Mastersound Gold Edition).flac
  Size: 249794226 Hash: 1740FE2ABD8481FD76E9D9C9024DEA83 Accuracy: -m0
  Conclusion: CDDA 100%
  Signature: 79288A879AFDDD85B9A6C85660E758C30DFB3511

Код:
Код:
REM GENRE Rock
REM DATE 1979
REM DISCID 77092409
REM COMMENT "ExactAudioCopy v1.0b3"
PERFORMER "Electric Light Orchestra"
TITLE "Discovery (Mastersound Gold Edition)"
FILE "Electric Light Orchestra - Discovery (Mastersound Gold Edition).flac" WAVE
  TRACK 01 AUDIO
    TITLE "Shine A Little Love"
    PERFORMER "Electric Light Orchestra"
    INDEX 01 00:00:00
  TRACK 02 AUDIO
    TITLE "Confusion"
    PERFORMER "Electric Light Orchestra"
    INDEX 00 04:41:18
    INDEX 01 04:43:10
  TRACK 03 AUDIO
    TITLE "Need Her Love"
    PERFORMER "Electric Light Orchestra"
    INDEX 00 08:24:20
    INDEX 01 08:25:43
  TRACK 04 AUDIO
    TITLE "Diary Of Horace Wimp"
    PERFORMER "Electric Light Orchestra"
    INDEX 00 13:36:38
    INDEX 01 13:37:20
  TRACK 05 AUDIO
    TITLE "Last Train To London"
    PERFORMER "Electric Light Orchestra"
    INDEX 00 17:54:55
    INDEX 01 17:56:50
  TRACK 06 AUDIO
    TITLE "Midnight Blue"
    PERFORMER "Electric Light Orchestra"
    INDEX 00 22:27:30
    INDEX 01 22:29:13
  TRACK 07 AUDIO
    TITLE "On The Run"
    PERFORMER "Electric Light Orchestra"
    INDEX 00 26:46:70
    INDEX 01 26:48:10
  TRACK 08 AUDIO
    TITLE "Wishing"
    PERFORMER "Electric Light Orchestra"
    INDEX 01 30:43:73
  TRACK 09 AUDIO
    TITLE "Don't Bring Me Down"
    PERFORMER "Electric Light Orchestra"
    INDEX 01 34:57:50

Код:
Код:
[CUETools log; Date: 09.01.2014 22:49:05; Version: 2.1.4]
[CTDB TOCID: pzdlG3AetEUMJ66te3MImxhHMVQ-] found.
Track | CTDB Status
  1   | (5/5) Accurately ripped
  2   | (5/5) Accurately ripped
  3   | (5/5) Accurately ripped
  4   | (5/5) Accurately ripped
  5   | (5/5) Accurately ripped
  6   | (5/5) Accurately ripped
  7   | (5/5) Accurately ripped
  8   | (5/5) Accurately ripped
  9   | (5/5) Accurately ripped
[AccurateRip ID: 000da4d2-0063b494-77092409] found.
Track   [  CRC   |   V2   ] Status
 01     [5376cb78|a229e8e6] (04+09/20) Accurately ripped
 02     [86d6f97e|85e91a99] (04+09/20) Accurately ripped
 03     [cb5be11a|88771ee4] (04+09/19) Accurately ripped
 04     [74664487|32a77b90] (04+09/20) Accurately ripped
 05     [a0c938a3|96e4f5dc] (04+09/20) Accurately ripped
 06     [b3ac3551|61a88d2c] (04+09/20) Accurately ripped
 07     [7f97d33d|002456cb] (04+09/20) Accurately ripped
 08     [d838546d|7e413292] (04+09/20) Accurately ripped
 09     [e95c5b15|6c91eb5c] (04+09/20) Accurately ripped
Offsetted by -63:
 01     [ed8c87ef] (03/20) Accurately ripped
 02     [ba9b9b81] (03/20) Accurately ripped
 03     [dc74b366] (02/19) Accurately ripped
 04     [7a061643] (03/20) Accurately ripped
 05     [2e4117d6] (03/20) Accurately ripped
 06     [26683a1b] (03/20) Accurately ripped
 07     [cc98fccc] (03/20) Accurately ripped
 08     [2352c60b] (03/20) Accurately ripped
 09     [b9227301] (03/20) Accurately ripped

Track Peak [ CRC32  ] [W/O NULL] [  LOG   ]
 --  100,0 [648068A9] [7889EF10]   CRC32
 01  100,0 [CC6FC916] [D4CB5CB7]
 02   77,8 [2F0B61D1] [8EDC58CC]
 03   65,5 [67B8B1A5] [EF15BE99]
 04  100,0 [B38B9D6B] [91331760]
 05   95,9 [36868B33] [9B27103D]
 06   72,8 [16C444EC] [3B3B6A56]
 07   89,6 [DF2FC5A5] [60C12CA8]
 08   83,5 [65A30403] [9F1DB5B9]
 09   82,3 [8BF30ED8] [67C4CF5F]

Правила, инструкции, FAQ!!!
Торрент  Добавлен [16 мар 2014, 00:07] Скачать торрент Магнет ссылка
Скачать торрент
[ Размер 13.72 КБ / Просмотров 28 ]

Статус  
 
Размер  308.38 МБ
Приватный: Нет (DHT включён)
.torrent скачан  0
 


     Отправить личное сообщение
   
Страница 1 из 1
Показать сообщения за:  Поле сортировки  
Начать новую тему Ответить на тему


Сейчас этот форум просматривают: нет зарегистрированных пользователей и гости: 0


Вы не можете начинать темы
Вы не можете отвечать на сообщения
Вы не можете редактировать свои сообщения
Вы не можете удалять свои сообщения
Вы не можете добавлять вложения

Перейти:  
cron