Начать новую тему Ответить на тему
Статистика раздачи
Размер: 237.51 МБ | Добавлен: 16 мар 2014, 00:09 | Скачали: 0
Сидеров: 1  [0 байт/сек]    Личеров: 2  [0 байт/сек]
Пред. тема | След. тема 

Автор
Сообщение

СообщениеДобавлено: 16 мар 2014, 00:09 

Ответить с цитатой 

Electric Light Orchestra - Balance Of Power (1986)

Год: 1986
Жанр: Classic Rock, Symphonic Rock
Лейбл: CBS Records
Каталог #: ZK 40048
Продолжительность: 00:34:35
Кодек: FLAC
Тип рипа: image + .cue
Битрейт: Lossless
Треклист:
01. Heaven Only Knows (2:57)
02. So Serious (2:44)
03. Getting To The Point (4:30)
04. Secret Lives (3:29)
05. Is It Alright (3:25)
06. Sorrow About To Fall (4:05)
07. Without Someone (3:51)
08. Calling America (3:28)
09. Endless Lies (3:00)
10. Send It (3:07)
Код:
Код:
Exact Audio Copy V1.0 beta 3 from 29. August 2011

EAC extraction logfile from 20. November 2013, 23:54

Electric Light Orchestra / Balance Of Power

Used drive  : PLEXTOR DVDR   PX-810SA   Adapter: 2  ID: 0

Read mode               : Secure
Utilize accurate stream : Yes
Defeat audio cache      : Yes
Make use of C2 pointers : No

Read offset correction                      : 48
Overread into Lead-In and Lead-Out          : No
Fill up missing offset samples with silence : Yes
Delete leading and trailing silent blocks   : No
Null samples used in CRC calculations       : Yes
Used interface                              : Installed external ASPI interface

Used output format              : User Defined Encoder
Selected bitrate                : 1024 kBit/s
Quality                         : High
Add ID3 tag                     : No
Command line compressor         : C:\Program Files (x86)\Exact Audio Copy\Flac\flac.exe
Additional command line options : -8 -V -T "Date=%year%" -T "Genre=%genre%" -T "COMMENT=ripped by bvstudio®" %source%

TOC of the extracted CD

     Track |   Start  |  Length  | Start sector | End sector
    ---------------------------------------------------------
        1  |  0:00.00 |  2:56.42 |         0    |    13241
        2  |  2:56.42 |  2:43.70 |     13242    |    25536
        3  |  5:40.37 |  4:30.30 |     25537    |    45816
        4  | 10:10.67 |  3:28.63 |     45817    |    61479
        5  | 13:39.55 |  3:24.40 |     61480    |    76819
        6  | 17:04.20 |  4:04.40 |     76820    |    95159
        7  | 21:08.60 |  3:51.05 |     95160    |   112489
        8  | 24:59.65 |  3:28.32 |    112490    |   128121
        9  | 28:28.22 |  2:59.73 |    128122    |   141619
       10  | 31:28.20 |  3:06.65 |    141620    |   155634

Range status and errors

Selected range

     Filename F:\Electric Light Orchestra\1986 - Balance Of Power (1986 - CBS Associated. USA - ZK 40048)\Electric Light Orchestra - Balance Of Power.wav

     Peak level 100.0 %
     Extraction speed 6.4 X
     Range quality 100.0 %
     Test CRC 42B170CA
     Copy CRC 42B170CA
     Copy OK

No errors occurred

AccurateRip summary

Track  1  cannot be verified as accurate (confidence 2)  [7F818145], AccurateRip returned [6DCEE883]  (AR v2)
Track  2  cannot be verified as accurate (confidence 2)  [51891C43], AccurateRip returned [F009CCD7]  (AR v2)
Track  3  cannot be verified as accurate (confidence 2)  [E794CCC3], AccurateRip returned [535899B9]  (AR v2)
Track  4  cannot be verified as accurate (confidence 2)  [349A64BB], AccurateRip returned [B28A7908]  (AR v2)
Track  5  cannot be verified as accurate (confidence 2)  [6D8D683E], AccurateRip returned [A3A88842]  (AR v2)
Track  6  cannot be verified as accurate (confidence 2)  [FA5E85E1], AccurateRip returned [2C01B667]  (AR v2)
Track  7  cannot be verified as accurate (confidence 2)  [58475ABF], AccurateRip returned [655E0271]  (AR v2)
Track  8  cannot be verified as accurate (confidence 2)  [724D6603], AccurateRip returned [CAEB4C81]  (AR v2)
Track  9  cannot be verified as accurate (confidence 2)  [DE3AA1EA], AccurateRip returned [F1F7551A]  (AR v2)
Track 10  cannot be verified as accurate (confidence 2)  [95D145A3], AccurateRip returned [E4A3B814]  (AR v2)

No tracks could be verified as accurate
You may have a different pressing from the one(s) in the database

End of status report

---- CUETools DB Plugin V2.1.5

[CTDB TOCID: 3b1bM3.wXvxgmo43gRgHrnCyyDU-] found
Submit result: 3b1bM3.wXvxgmo43gRgHrnCyyDU- has been confirmed
Track | CTDB Status
  1   | (3/3) Accurately ripped
  2   | (3/3) Accurately ripped
  3   | (3/3) Accurately ripped
  4   | (2/3) Accurately ripped
  5   | (2/3) Accurately ripped
  6   | (2/3) Accurately ripped
  7   | (2/3) Accurately ripped
  8   | (2/3) Accurately ripped
  9   | (2/3) Accurately ripped
 10   | (2/3) Accurately ripped

==== Log checksum A8491B38AE062C5EC5BC94D2BC6431C11CD7A66FB3DA314FB790BD93FE8333B0 ====

Код:
Код:
-----------------------

DON'T MODIFY THIS FILE

-----------------------

PERFORMER: auCDtect Task Manager, ver. 1.6.0 RC1 build 1.6.0.1
Copyright (c) 2008-2010 y-soft. All rights reserved
http:/y-soft.org

ANALYZER: auCDtect: CD records authenticity detector, version 0.8.2
Copyright (c) 2004 Oleg Berngardt. All rights reserved.
Copyright (c) 2004 Alexander Djourik. All rights reserved.

FILE: Electric Light Orchestra - Balance Of Power.flac
  Size: 219139733 Hash: 8EC612A79074EAE6725B549DCFAF880E Accuracy: -m0
  Conclusion: CDDA 100%
  Signature: DD236C6C95D2D50DF7C99B54687B3FFDB2C40866

Код:
Код:
REM GENRE Rock
REM DATE 1986
REM DISCID 64081B0A
REM COMMENT "ExactAudioCopy v1.0b3"
PERFORMER "Electric Light Orchestra"
TITLE "Balance Of Power"
FILE "Electric Light Orchestra - Balance Of Power.flac" WAVE
  TRACK 01 AUDIO
    TITLE "Heaven Only Knows"
    PERFORMER "Electric Light Orchestra"
    INDEX 01 00:00:00
  TRACK 02 AUDIO
    TITLE "So Serious"
    PERFORMER "Electric Light Orchestra"
    INDEX 00 02:54:15
    INDEX 01 02:56:42
  TRACK 03 AUDIO
    TITLE "Getting To The Point"
    PERFORMER "Electric Light Orchestra"
    INDEX 00 05:38:60
    INDEX 01 05:40:37
  TRACK 04 AUDIO
    TITLE "Secret Lives"
    PERFORMER "Electric Light Orchestra"
    INDEX 00 10:09:27
    INDEX 01 10:10:67
  TRACK 05 AUDIO
    TITLE "Is It Alright"
    PERFORMER "Electric Light Orchestra"
    INDEX 01 13:39:55
  TRACK 06 AUDIO
    TITLE "Sorrow About To Fall"
    PERFORMER "Electric Light Orchestra"
    INDEX 01 17:04:20
  TRACK 07 AUDIO
    TITLE "Without Someone"
    PERFORMER "Electric Light Orchestra"
    INDEX 00 21:07:52
    INDEX 01 21:08:60
  TRACK 08 AUDIO
    TITLE "Calling America"
    PERFORMER "Electric Light Orchestra"
    INDEX 00 24:58:12
    INDEX 01 24:59:65
  TRACK 09 AUDIO
    TITLE "Endless Lies"
    PERFORMER "Electric Light Orchestra"
    INDEX 01 28:28:22
  TRACK 10 AUDIO
    TITLE "Send It"
    PERFORMER "Electric Light Orchestra"
    INDEX 00 31:24:70
    INDEX 01 31:28:20

Код:
Код:
[CUETools log; Date: 16.01.2014 20:25:57; Version: 2.1.4]
[CTDB TOCID: 3b1bM3.wXvxgmo43gRgHrnCyyDU-] found.
Track | CTDB Status
  1   | (4/4) Accurately ripped
  2   | (4/4) Accurately ripped
  3   | (4/4) Accurately ripped
  4   | (3/4) Accurately ripped
  5   | (3/4) Accurately ripped
  6   | (3/4) Accurately ripped
  7   | (3/4) Accurately ripped
  8   | (3/4) Accurately ripped
  9   | (3/4) Accurately ripped
 10   | (3/4) Accurately ripped
[AccurateRip ID: 000d0f73-006950f7-64081b0a] found.
Track   [  CRC   |   V2   ] Status
 01     [4f1b7ada|7f818145] (0+0/2) No match
 02     [4023ba25|51891c43] (0+0/2) No match
 03     [4a18d52f|e794ccc3] (0+0/2) No match
 04     [37bd4bbd|349a64bb] (0+0/2) No match
 05     [7c341323|6d8d683e] (0+0/2) No match
 06     [5d8d9aa9|fa5e85e1] (0+0/2) No match
 07     [43cb75ca|58475abf] (0+0/2) No match
 08     [1ed4dcc5|724d6603] (0+0/2) No match
 09     [ae3f3910|de3aa1ea] (0+0/2) No match
 10     [c29103cd|95d145a3] (0+0/2) No match
Offsetted by 678:
 01     [6dcee883] (2/2) Accurately ripped
 02     [f009ccd7] (2/2) Accurately ripped
 03     [535899b9] (2/2) Accurately ripped
 04     [b28a7908] (2/2) Accurately ripped
 05     [a3a88842] (2/2) Accurately ripped
 06     [2c01b667] (2/2) Accurately ripped
 07     [655e0271] (2/2) Accurately ripped
 08     [caeb4c81] (2/2) Accurately ripped
 09     [f1f7551a] (2/2) Accurately ripped
 10     [e4a3b814] (2/2) Accurately ripped
Offsetted by 739:
 01     [8f9384ce] (0/2) No match (V2 was not tested)
 02     [7ea3220d] (0/2) No match (V2 was not tested)
 03     [1015eb18] (0/2) No match (V2 was not tested)
 04     [f6b0c9d2] (0/2) No match (V2 was not tested)
 05     [823b5d21] (0/2) No match (V2 was not tested)
 06     [c79b925d] (0/2) No match (V2 was not tested)
 07     [647758e9] (0/2) No match (V2 was not tested)
 08     [d14b0bc8] (0/2) No match (V2 was not tested)
 09     [e47e4f0d] (0/2) No match (V2 was not tested)
 10     [6990b190] (0/2) No match (V2 was not tested)

Track Peak [ CRC32  ] [W/O NULL] [  LOG   ]
 --  100,0 [42B170CA] [06124333]   CRC32
 01   78,1 [37B99E02] [EF2F7502]
 02   98,8 [9D5F5FB0] [B860A02F]
 03   75,4 [DC6EDA47] [A314472E]
 04   97,8 [55650825] [7CF9D35C]
 05   84,4 [FCF0101F] [5D2B9270]
 06   90,1 [E9C58DC2] [C36020A7]
 07   78,1 [E8201FBD] [98CFE33F]
 08   98,9 [24F2055B] [67FBCBE4]
 09  100,0 [7A765EA7] [AC03F36A]
 10   96,4 [F62BD2AE] [D8B7A335]

Правила, инструкции, FAQ!!!
Торрент  Добавлен [16 мар 2014, 00:09] Скачать торрент Магнет ссылка
Скачать торрент
[ Размер 19.81 КБ / Просмотров 59 ]

Статус  
 
Размер  237.51 МБ
Приватный: Нет (DHT включён)
.torrent скачан  0
 


     Отправить личное сообщение
   
Страница 1 из 1
Показать сообщения за:  Поле сортировки  
Начать новую тему Ответить на тему


Сейчас этот форум просматривают: нет зарегистрированных пользователей и гости: 0


Вы не можете начинать темы
Вы не можете отвечать на сообщения
Вы не можете редактировать свои сообщения
Вы не можете удалять свои сообщения
Вы не можете добавлять вложения

Перейти:  
cron