Начать новую тему Ответить на тему
Статистика раздачи
Размер: 4.61 ГБ | Добавлен: 16 мар 2014, 00:14 | Скачали: 1
Сидеров: 18  [0 байт/сек]    Личеров: 4  [0 байт/сек]
Пред. тема | След. тема 

Автор
Сообщение

СообщениеДобавлено: 16 мар 2014, 00:14 

Ответить с цитатой 


Electric Light Orchestra - 12 Albums (1971-2001) 13 CD

Год: 1971-2001 / Reissue Remastered 2001-2006 (2006-2007)
Жанр: Rock, Classic Rock, Symphonic Rock, Art-Rock
Продолжительность: 11:14:54
Кодек: WavPack
Битрейт: losseless
Тип рипа: image + cue
Издатель: Toshiba-EMI / Sony Music
Номер по каталогу: в содержании
Наличие сканов: да
Источник: KOGANKW


Содержание:
#777Треклист:
01. 10538 Overture (5:37)
02. Look At Me Now (3:20)
03. Nellie Takes Her Bow (6:02)
04. The Battle Of Marston Moor (6:05)
05. First Movement (Jumping Biz) (3:04)
06. Mr. Radio (5:07)
07. Manhattan Rumble (4:26)
08. Queen Of The Hours (3:26)
09. Whisper In The Night (4:50)
10. The Battle Of Marston Moor (Bonus Session Track) (1:00)
11. 10538 Overture (Bonus Session Track) (5:47)

Продолжительноcть: 00:48:43
Код:
Код:
Exact Audio Copy V0.99 prebeta 5 from 4. May 2009

EAC extraction logfile from 7. March 2012, 21:14

Electric Light Orchestra / The Electric Light Orchestra

Used drive  : ASUS    DRW-24B3ST   Adapter: 4  ID: 0

Read mode               : Secure
Utilize accurate stream : Yes
Defeat audio cache      : Yes
Make use of C2 pointers : No

Read offset correction                      : 6
Overread into Lead-In and Lead-Out          : No
Fill up missing offset samples with silence : Yes
Delete leading and trailing silent blocks   : No
Null samples used in CRC calculations       : Yes
Used interface                              : Native Win32 interface for Win NT & 2000

Used output format : Internal WAV Routines
Sample format      : 44.100 Hz; 16 Bit; Stereo

TOC of the extracted CD

     Track |   Start  |  Length  | Start sector | End sector
    ---------------------------------------------------------
        1  |  0:00.00 |  5:37.00 |         0    |    25274
        2  |  5:37.00 |  3:20.27 |     25275    |    40301
        3  |  8:57.27 |  6:02.05 |     40302    |    67456
        4  | 14:59.32 |  6:05.10 |     67457    |    94841
        5  | 21:04.42 |  3:03.45 |     94842    |   108611
        6  | 24:08.12 |  5:06.65 |    108612    |   131626
        7  | 29:15.02 |  4:25.60 |    131627    |   151561
        8  | 33:40.62 |  3:25.63 |    151562    |   166999
        9  | 37:06.50 |  4:49.45 |    167000    |   188719
       10  | 41:56.20 |  1:00.27 |    188720    |   193246
       11  | 42:56.47 |  5:46.45 |    193247    |   219241
       12  | 51:15.17 | 23:10.23 |    230642    |   334914

Range status and errors

Selected range

     Filename D:\ELO\1971- The Electric Light Orchestra (JP 2006 Toshiba-EMI • TOCP-70062)\Electric Light Orchestra - The Electric Light Orchestra.wav

     Peak level 95.3 %
     Range quality 100.0 %
     Test CRC CE17A758
     Copy CRC CE17A758
     Copy OK

No errors occurred

AccurateRip summary

Track  1  accurately ripped (confidence 3)  [6B698977]
Track  2  accurately ripped (confidence 3)  [51023E55]
Track  3  accurately ripped (confidence 3)  [56C7B8E5]
Track  4  accurately ripped (confidence 3)  [276306D0]
Track  5  accurately ripped (confidence 3)  [21A16D24]
Track  6  accurately ripped (confidence 3)  [E23125E8]
Track  7  accurately ripped (confidence 2)  [A4FAE1A8]
Track  8  accurately ripped (confidence 3)  [36CCD71B]
Track  9  accurately ripped (confidence 3)  [BA869E70]
Track 10  accurately ripped (confidence 3)  [D5384BBE]
Track 11  accurately ripped (confidence 3)  [C3AFAD36]

All tracks accurately ripped

End of status report
Код:
Код:
-----------------------

DON'T MODIFY THIS FILE

-----------------------

PERFORMER: auCDtect Task Manager, ver. 1.5.1RC4 build 1.5.1.5
Copyright (c) 2008-2010 y-soft. All rights reserved
http:/y-soft.org

ANALYZER: auCDtect: CD records authenticity detector, version 0.8.2
Copyright (c) 2004 Oleg Berngardt. All rights reserved.
Copyright (c) 2004 Alexander Djourik. All rights reserved.

FILE: Electric Light Orchestra - The Electric Light Orchestra.wv
  Size: 287505437 Hash: 7C458404A07CB3E41AFAB7F4B6BA5C05 Accuracy: -m0
  Conclusion: CDDA 43%
  Signature: CABDD7B414244AF9E5B1AA336E703603C48E49A4
#777Треклист:
01. In Old England Town (Boogie No. 2) (6:58)
02. Momma... (7:00)
03. Roll Over Beethoven (7:04)
04. From The Sun To The World (Boogie No. 1) (8:18)
05. Kuiama (11:21)
06. Showdown (4:11)
07. In Old England Town (Instrumental) (2:44)
08. Baby I Apologise (3:43)
09. Auntie (Ma-Ma-Ma Belle Take 1) (1:19)
10. Auntie (Ma-Ma-Ma Belle Take 2) (4:03)
11. Mambo (Dreaming Of 4000 Take 1) (5:02)
12. Everyone's Born To Die (4:40)
13. Roll Over Beethoven (Take 1) (8:16)

Продолжительноcть: 01:14:40
Код:
Код:
Exact Audio Copy V0.99 prebeta 5 from 4. May 2009

EAC extraction logfile from 7. March 2012, 21:15

Electric Light Orchestra / ELO 2

Used drive  : ASUS    DRW-24B3ST   Adapter: 5  ID: 0

Read mode               : Secure
Utilize accurate stream : Yes
Defeat audio cache      : Yes
Make use of C2 pointers : No

Read offset correction                      : 6
Overread into Lead-In and Lead-Out          : No
Fill up missing offset samples with silence : Yes
Delete leading and trailing silent blocks   : No
Null samples used in CRC calculations       : Yes
Used interface                              : Native Win32 interface for Win NT & 2000

Used output format : Internal WAV Routines
Sample format      : 44.100 Hz; 16 Bit; Stereo

TOC of the extracted CD

     Track |   Start  |  Length  | Start sector | End sector
    ---------------------------------------------------------
        1  |  0:00.00 |  6:57.52 |         0    |    31326
        2  |  6:57.52 |  6:59.50 |     31327    |    62801
        3  | 13:57.27 |  7:03.73 |     62802    |    94599
        4  | 21:01.25 |  8:18.00 |     94600    |   131949
        5  | 29:19.25 | 11:21.07 |    131950    |   183031
        6  | 40:40.32 |  4:11.13 |    183032    |   201869
        7  | 44:51.45 |  2:43.65 |    201870    |   214159
        8  | 47:35.35 |  3:42.72 |    214160    |   230881
        9  | 51:18.32 |  1:19.28 |    230882    |   236834
       10  | 52:37.60 |  4:03.12 |    236835    |   255071
       11  | 56:40.72 |  5:02.08 |    255072    |   277729
       12  | 61:43.05 |  4:40.10 |    277730    |   298739
       13  | 66:23.15 |  8:16.25 |    298740    |   335964

Range status and errors

Selected range

     Filename D:\ELO\1973- E.L.O. 2 (JP 2006 Toshiba-EMI • TOCP-70063)\Electric Light Orchestra - ELO 2.wav

     Peak level 99.2 %
     Range quality 99.9 %
     Test CRC 7CC462F0
     Copy CRC 7CC462F0
     Copy OK

No errors occurred

AccurateRip summary

Track  1  accurately ripped (confidence 4)  [3F33B3FD]
Track  2  accurately ripped (confidence 4)  [49F4F680]
Track  3  accurately ripped (confidence 4)  [C7630653]
Track  4  accurately ripped (confidence 4)  [7156350B]
Track  5  accurately ripped (confidence 4)  [D8EB430B]
Track  6  accurately ripped (confidence 4)  [817A20AE]
Track  7  accurately ripped (confidence 4)  [8CC0E8BC]
Track  8  accurately ripped (confidence 4)  [D3AB8CF3]
Track  9  accurately ripped (confidence 4)  [615AAFCF]
Track 10  accurately ripped (confidence 4)  [DFBB7184]
Track 11  accurately ripped (confidence 4)  [1975B536]
Track 12  accurately ripped (confidence 4)  [CC7EFA15]
Track 13  accurately ripped (confidence 4)  [1D0F2B13]

All tracks accurately ripped

End of status report
Код:
Код:
-----------------------

DON'T MODIFY THIS FILE

-----------------------

PERFORMER: auCDtect Task Manager, ver. 1.5.1RC4 build 1.5.1.5
Copyright (c) 2008-2010 y-soft. All rights reserved
http:/y-soft.org

ANALYZER: auCDtect: CD records authenticity detector, version 0.8.2
Copyright (c) 2004 Oleg Berngardt. All rights reserved.
Copyright (c) 2004 Alexander Djourik. All rights reserved.

FILE: Electric Light Orchestra - ELO 2.wv
  Size: 470537219 Hash: 616DE9588EB7019469C774A01FA4CED5 Accuracy: -m0
  Conclusion: CDDA 100%
  Signature: EB8F6773949880827B094E9A97AB95351AF99D58
#777Треклист:
01. Ocean Breakup - King Of The Universe (4:07)
02. Bluebird Is Dead (4:43)
03. Oh No Not Susan (3:07)
04. New World Rising - Ocean Breakup Reprise (4:05)
05. Showdown (4:09)
06. Daybreaker (3:51)
07. Ma-Ma-Ma Belle (3:57)
08. Dreaming Of 4000 (5:04)
09. In The Hall Of The Mountain King (6:38)
10. Auntie (Ma-Ma-Ma- Belle Take 1) (1:19)
11. Auntie (Ma-Ma-Ma- Belle Take 2) (4:05)
12. Mambo (Dreaming Of 4000 Alt. Mix) (5:05)
13. Everyone's Born To Die (3:43)
14. Interludes (Previously Unissued) (3:41)

Продолжительноcть: 00:57:35
Код:
Код:
Exact Audio Copy V0.99 prebeta 5 from 4. May 2009

EAC extraction logfile from 7. March 2012, 22:04

Electric Light Orchestra / On The Third Day

Used drive  : ASUS    DRW-24B3ST   Adapter: 5  ID: 0

Read mode               : Secure
Utilize accurate stream : Yes
Defeat audio cache      : Yes
Make use of C2 pointers : No

Read offset correction                      : 6
Overread into Lead-In and Lead-Out          : No
Fill up missing offset samples with silence : Yes
Delete leading and trailing silent blocks   : No
Null samples used in CRC calculations       : Yes
Used interface                              : Native Win32 interface for Win NT & 2000

Used output format : Internal WAV Routines
Sample format      : 44.100 Hz; 16 Bit; Stereo

TOC of the extracted CD

     Track |   Start  |  Length  | Start sector | End sector
    ---------------------------------------------------------
        1  |  0:00.00 |  4:07.02 |         0    |    18526
        2  |  4:07.02 |  4:42.58 |     18527    |    39734
        3  |  8:49.60 |  3:07.15 |     39735    |    53774
        4  | 11:57.00 |  4:05.05 |     53775    |    72154
        5  | 16:02.05 |  4:09.17 |     72155    |    90846
        6  | 20:11.22 |  3:51.26 |     90847    |   108197
        7  | 24:02.48 |  3:56.45 |    108198    |   125942
        8  | 27:59.18 |  5:04.24 |    125943    |   148766
        9  | 33:03.42 |  6:37.59 |    148767    |   178600
       10  | 39:41.26 |  1:19.12 |    178601    |   184537
       11  | 41:00.38 |  4:05.11 |    184538    |   202923
       12  | 45:05.49 |  5:05.12 |    202924    |   225810
       13  | 50:10.61 |  3:43.27 |    225811    |   242562
       14  | 53:54.13 |  3:40.46 |    242563    |   259108

Range status and errors

Selected range

     Filename D:\ELO\1973- On The Third Day (JP 2006 Epic-Sony Music • MHCP-1094)\Electric Light Orchestra - On The Third Day.wav

     Peak level 99.9 %
     Range quality 100.0 %
     Test CRC C0DEE605
     Copy CRC C0DEE605
     Copy OK

No errors occurred

AccurateRip summary

Track  1  accurately ripped (confidence 4)  [A62D1D1C]
Track  2  accurately ripped (confidence 4)  [23706366]
Track  3  accurately ripped (confidence 4)  [BA604992]
Track  4  accurately ripped (confidence 4)  [B2E1FB6F]
Track  5  accurately ripped (confidence 4)  [81CEB3EF]
Track  6  accurately ripped (confidence 4)  [68CB15B8]
Track  7  accurately ripped (confidence 4)  [52152A52]
Track  8  accurately ripped (confidence 4)  [AA95EA3B]
Track  9  accurately ripped (confidence 4)  [E484C348]
Track 10  accurately ripped (confidence 3)  [D7E55148]
Track 11  accurately ripped (confidence 3)  [25ED44E6]
Track 12  accurately ripped (confidence 3)  [F2370AED]
Track 13  accurately ripped (confidence 3)  [DA2B214D]
Track 14  accurately ripped (confidence 2)  [6D52C3EC]

All tracks accurately ripped

End of status report
Код:
Код:
-----------------------

DON'T MODIFY THIS FILE

-----------------------

PERFORMER: auCDtect Task Manager, ver. 1.5.1RC4 build 1.5.1.5
Copyright (c) 2008-2010 y-soft. All rights reserved
http:/y-soft.org

ANALYZER: auCDtect: CD records authenticity detector, version 0.8.2
Copyright (c) 2004 Oleg Berngardt. All rights reserved.
Copyright (c) 2004 Alexander Djourik. All rights reserved.

FILE: Electric Light Orchestra - On The Third Day.wv
  Size: 354359578 Hash: 99B6EDADF2D8B791F722991F375C0275 Accuracy: -m0
  Conclusion: CDDA 100%
  Signature: E4BE87034E49D7ABC22D1B2971DD5FC5903890BC
#777Треклист:
01. Eldorado Overture (2:12)
02. Can't Get It Out Of My Head (4:22)
03. Boy Blue (5:19)
04. Laredo Tornado (5:30)
05. Poor Boy (The Greenwood) (2:58)
06. Mister Kingdom (5:30)
07. Nobody's Child (3:57)
08. Illusions In G Major (2:37)
09. Eldorado (5:18)
10. Eldorado Finale (1:35)
11. Eldorado Instrumental Medley (Bonus) (7:57)
12. Dark City (Bonus) (0:47)

Продолжительноcть: 00:48:00
Код:
Код:
Exact Audio Copy V0.99 prebeta 5 from 4. May 2009

EAC extraction logfile from 7. March 2012, 22:03

Electric Light Orchestra / Eldorado

Used drive  : ASUS    DRW-24B3ST   Adapter: 4  ID: 0

Read mode               : Secure
Utilize accurate stream : Yes
Defeat audio cache      : Yes
Make use of C2 pointers : No

Read offset correction                      : 6
Overread into Lead-In and Lead-Out          : No
Fill up missing offset samples with silence : Yes
Delete leading and trailing silent blocks   : No
Null samples used in CRC calculations       : Yes
Used interface                              : Native Win32 interface for Win NT & 2000

Used output format : Internal WAV Routines
Sample format      : 44.100 Hz; 16 Bit; Stereo

TOC of the extracted CD

     Track |   Start  |  Length  | Start sector | End sector
    ---------------------------------------------------------
        1  |  0:00.00 |  2:12.27 |         0    |     9926
        2  |  2:12.27 |  4:21.63 |      9927    |    29564
        3  |  6:34.15 |  5:19.00 |     29565    |    53489
        4  | 11:53.15 |  5:29.55 |     53490    |    78219
        5  | 17:22.70 |  2:57.55 |     78220    |    91549
        6  | 20:20.50 |  5:29.47 |     91550    |   116271
        7  | 25:50.22 |  3:56.43 |    116272    |   134014
        8  | 29:46.65 |  2:37.27 |    134015    |   145816
        9  | 32:24.17 |  5:17.65 |    145817    |   169656
       10  | 37:42.07 |  1:34.43 |    169657    |   176749
       11  | 39:16.50 |  7:56.42 |    176750    |   212491
       12  | 47:13.17 |  0:47.05 |    212492    |   216021

Range status and errors

Selected range

     Filename D:\ELO\1974- Eldorado (JP 2006 Epic-Sony Music • MHCP-1095)\Electric Light Orchestra - Eldorado.wav

     Peak level 100.0 %
     Range quality 100.0 %
     Test CRC FDAC5DBF
     Copy CRC FDAC5DBF
     Copy OK

No errors occurred

AccurateRip summary

Track  1  accurately ripped (confidence 7)  [9C16C4DA]
Track  2  accurately ripped (confidence 7)  [94FB503B]
Track  3  accurately ripped (confidence 7)  [E701C6A8]
Track  4  accurately ripped (confidence 7)  [300EF9F6]
Track  5  accurately ripped (confidence 7)  [56D8F358]
Track  6  accurately ripped (confidence 7)  [0BB0AA38]
Track  7  accurately ripped (confidence 7)  [8E956D56]
Track  8  accurately ripped (confidence 7)  [5DAD35A3]
Track  9  accurately ripped (confidence 7)  [E69D7BD3]
Track 10  accurately ripped (confidence 7)  [78DE81A6]
Track 11  accurately ripped (confidence 6)  [3F35F006]
Track 12  accurately ripped (confidence 7)  [F4ABC6BC]

All tracks accurately ripped

End of status report
Код:
Код:
-----------------------

DON'T MODIFY THIS FILE

-----------------------

PERFORMER: auCDtect Task Manager, ver. 1.5.1RC4 build 1.5.1.5
Copyright (c) 2008-2010 y-soft. All rights reserved
http:/y-soft.org

ANALYZER: auCDtect: CD records authenticity detector, version 0.8.2
Copyright (c) 2004 Oleg Berngardt. All rights reserved.
Copyright (c) 2004 Alexander Djourik. All rights reserved.

FILE: Electric Light Orchestra - Eldorado.wv
  Size: 313013273 Hash: 7E7D2B18BFE71E8A36E9C529A2B3C9AA Accuracy: -m0
  Conclusion: CDDA 100%
  Signature: D9C235B883B869B2E0F69B3488564F281CB35880
#777Треклист:
01. Fire On High (5:32)
02. Waterfall (4:12)
03. Evil Woman (4:30)
04. Nightrider (4:26)
05. Poker (3:32)
06. Strange Magic (4:30)
07. Down Home Town (3:55)
08. One Summer Dream (5:51)
09. Fire On High Intro (Early Alternate Mix) (3:23)
10. Evil Woman (Stripped Down Mix) (5:00)
11. Strange Magic (U.S. Single Edit) (3:28)
12. Waterfall (Instrumental Mix) (4:15)

Продолжительноcть: 00:52:34
Код:
Код:
Exact Audio Copy V0.99 prebeta 5 from 4. May 2009

EAC extraction logfile from 7. March 2012, 22:38

Electric Light Orchestra / Face The Music

Used drive  : ASUS    DRW-24B3ST   Adapter: 4  ID: 0

Read mode               : Secure
Utilize accurate stream : Yes
Defeat audio cache      : Yes
Make use of C2 pointers : No

Read offset correction                      : 6
Overread into Lead-In and Lead-Out          : No
Fill up missing offset samples with silence : Yes
Delete leading and trailing silent blocks   : No
Null samples used in CRC calculations       : Yes
Used interface                              : Native Win32 interface for Win NT & 2000

Used output format : Internal WAV Routines
Sample format      : 44.100 Hz; 16 Bit; Stereo

TOC of the extracted CD

     Track |   Start  |  Length  | Start sector | End sector
    ---------------------------------------------------------
        1  |  0:00.00 |  5:31.43 |         0    |    24867
        2  |  5:31.43 |  4:11.57 |     24868    |    43749
        3  |  9:43.25 |  4:29.63 |     43750    |    63987
        4  | 14:13.13 |  4:26.12 |     63988    |    83949
        5  | 18:39.25 |  3:32.26 |     83950    |    99875
        6  | 22:11.51 |  4:29.57 |     99876    |   120107
        7  | 26:41.33 |  3:54.54 |    120108    |   137711
        8  | 30:36.12 |  5:51.11 |    137712    |   164047
        9  | 36:27.23 |  3:23.23 |    164048    |   179295
       10  | 39:50.46 |  5:00.13 |    179296    |   201808
       11  | 44:50.59 |  3:27.63 |    201809    |   217396
       12  | 48:18.47 |  4:15.12 |    217397    |   236533

Range status and errors

Selected range

     Filename D:\ELO\1975- Face The Music (JP 2006 Epic-Sony Music • MHCP-1096)\Electric Light Orchestra - Face The Music.wav

     Peak level 100.0 %
     Range quality 100.0 %
     Test CRC A949148A
     Copy CRC A949148A
     Copy OK

No errors occurred

AccurateRip summary

Track  1  accurately ripped (confidence 6)  [1ACAD729]
Track  2  accurately ripped (confidence 6)  [61A91C31]
Track  3  accurately ripped (confidence 6)  [FEC0A702]
Track  4  accurately ripped (confidence 6)  [D7AA0809]
Track  5  accurately ripped (confidence 6)  [C9C9D629]
Track  6  accurately ripped (confidence 6)  [C1663F23]
Track  7  accurately ripped (confidence 6)  [3C5F3ECA]
Track  8  accurately ripped (confidence 6)  [E78FE58A]
Track  9  accurately ripped (confidence 6)  [0CF0520F]
Track 10  accurately ripped (confidence 6)  [1B325F3E]
Track 11  accurately ripped (confidence 6)  [101E7810]
Track 12  accurately ripped (confidence 6)  [2EAEF423]

All tracks accurately ripped

End of status report
Код:
Код:
-----------------------

DON'T MODIFY THIS FILE

-----------------------

PERFORMER: auCDtect Task Manager, ver. 1.5.1RC4 build 1.5.1.5
Copyright (c) 2008-2010 y-soft. All rights reserved
http:/y-soft.org

ANALYZER: auCDtect: CD records authenticity detector, version 0.8.2
Copyright (c) 2004 Oleg Berngardt. All rights reserved.
Copyright (c) 2004 Alexander Djourik. All rights reserved.

FILE: Electric Light Orchestra - Face The Music.wv
  Size: 332736404 Hash: 4CFAE54834144BF2D1DCEC3F932E119D Accuracy: -m0
  Conclusion: CDDA 100%
  Signature: 80E61EAF2326995D18A6E23D93AC7766CCD888DD
#777Треклист:
01. Tightrope (5:06)
02. Telephone Line (4:40)
03. Rockaria! (3:13)
04. Mission (A World Record) (4:26)
05. So Fine (3:55)
06. Livin' Thing (3:32)
07. Above The Clouds (2:17)
08. Do Ya (3:45)
09. Shangri-La (5:40)
10. Telephone Line (Different Vocal) (4:41)
11. Surrender (2:37)
12. Tightrope (Instrumental Early Rough Mix) (4:56)
13. Above the Clouds (Instrumental Rough Mix) (1:15)
14. So Fine (Instrumental Early Rough Mix) (4:16)
15. Telephone Line (Instrumental) (4:51)

Продолжительноcть: 00:59:12
Код:
Код:
Exact Audio Copy V0.99 prebeta 5 from 4. May 2009

EAC extraction logfile from 7. March 2012, 22:38

Electric Light Orchestra / A New World Records

Used drive  : ASUS    DRW-24B3ST   Adapter: 5  ID: 0

Read mode               : Secure
Utilize accurate stream : Yes
Defeat audio cache      : Yes
Make use of C2 pointers : No

Read offset correction                      : 6
Overread into Lead-In and Lead-Out          : No
Fill up missing offset samples with silence : Yes
Delete leading and trailing silent blocks   : No
Null samples used in CRC calculations       : Yes
Used interface                              : Native Win32 interface for Win NT & 2000

Used output format : Internal WAV Routines
Sample format      : 44.100 Hz; 16 Bit; Stereo

TOC of the extracted CD

     Track |   Start  |  Length  | Start sector | End sector
    ---------------------------------------------------------
        1  |  0:00.00 |  5:06.06 |         0    |    22955
        2  |  5:06.06 |  4:40.27 |     22956    |    43982
        3  |  9:46.33 |  3:12.63 |     43983    |    58445
        4  | 12:59.21 |  4:25.56 |     58446    |    78376
        5  | 17:25.02 |  3:55.34 |     78377    |    96035
        6  | 21:20.36 |  3:32.18 |     96036    |   111953
        7  | 24:52.54 |  2:17.02 |    111954    |   122230
        8  | 27:09.56 |  3:45.10 |    122231    |   139115
        9  | 30:54.66 |  5:40.17 |    139116    |   164632
       10  | 36:35.08 |  4:41.34 |    164633    |   185741
       11  | 41:16.42 |  2:37.36 |    185742    |   197552
       12  | 43:54.03 |  4:55.40 |    197553    |   219717
       13  | 48:49.43 |  1:14.57 |    219718    |   225324
       14  | 50:04.25 |  4:16.28 |    225325    |   244552
       15  | 54:20.53 |  4:51.30 |    244553    |   266407

Range status and errors

Selected range

     Filename D:\ELO\1976- A New World Record (JP 2006 Epic-Sony Music • MHCP-1097)\Electric Light Orchestra - A New World Records.wav

     Peak level 100.0 %
     Range quality 100.0 %
     Test CRC 140F09B2
     Copy CRC 140F09B2
     Copy OK

No errors occurred

AccurateRip summary

Track  1  accurately ripped (confidence 7)  [38022E32]
Track  2  accurately ripped (confidence 7)  [0BDEA45F]
Track  3  accurately ripped (confidence 7)  [0E74AA8C]
Track  4  accurately ripped (confidence 7)  [CCA89EAB]
Track  5  accurately ripped (confidence 7)  [A8D27233]
Track  6  accurately ripped (confidence 7)  [A7212001]
Track  7  accurately ripped (confidence 6)  [221EA427]
Track  8  accurately ripped (confidence 7)  [8A97DC70]
Track  9  accurately ripped (confidence 7)  [84324A91]
Track 10  accurately ripped (confidence 7)  [78D32850]
Track 11  accurately ripped (confidence 7)  [ECB04D42]
Track 12  accurately ripped (confidence 7)  [09FD13BA]
Track 13  accurately ripped (confidence 7)  [E0C1A253]
Track 14  accurately ripped (confidence 7)  [EA44B4B8]
Track 15  accurately ripped (confidence 6)  [FB61715C]

All tracks accurately ripped

End of status report
Код:
Код:
-----------------------

DON'T MODIFY THIS FILE

-----------------------

PERFORMER: auCDtect Task Manager, ver. 1.5.1RC4 build 1.5.1.5
Copyright (c) 2008-2010 y-soft. All rights reserved
http:/y-soft.org

ANALYZER: auCDtect: CD records authenticity detector, version 0.8.2
Copyright (c) 2004 Oleg Berngardt. All rights reserved.
Copyright (c) 2004 Alexander Djourik. All rights reserved.

FILE: Electric Light Orchestra - A New World Records.wv
  Size: 384510799 Hash: 79A0F4C69A8851DF3FAC7D807CB95DB0 Accuracy: -m0
  Conclusion: CDDA 100%
  Signature: 564AF8212B55491149F57BA1BD5069607AEDCBDE
#777Продолжительноcть: 01:16:27
#777Треклист:
01. Turn To Stone (3:49)
02. It's Over (4:09)
03. Sweet Talkin' Woman (3:50)
04. Across The Border (3:54)
05. Night In The City (4:04)
06. Starlight (4:32)
07. Jungle (3:53)
08. Believe Me Now (1:21)
09. Steppin' Out (4:41)

Продолжительноcть: 00:34:12
Код:
Код:
Exact Audio Copy V0.99 prebeta 5 from 4. May 2009

EAC extraction logfile from 7. March 2012, 23:13

Electric Light Orchestra / Out Of The Blue CD1

Used drive  : ASUS    DRW-24B3ST   Adapter: 4  ID: 0

Read mode               : Secure
Utilize accurate stream : Yes
Defeat audio cache      : Yes
Make use of C2 pointers : No

Read offset correction                      : 6
Overread into Lead-In and Lead-Out          : No
Fill up missing offset samples with silence : Yes
Delete leading and trailing silent blocks   : No
Null samples used in CRC calculations       : Yes
Used interface                              : Native Win32 interface for Win NT & 2000

Used output format : Internal WAV Routines
Sample format      : 44.100 Hz; 16 Bit; Stereo

TOC of the extracted CD

     Track |   Start  |  Length  | Start sector | End sector
    ---------------------------------------------------------
        1  |  0:00.00 |  3:49.05 |         0    |    17179
        2  |  3:49.05 |  4:08.50 |     17180    |    35829
        3  |  7:57.55 |  3:49.70 |     35830    |    53074
        4  | 11:47.50 |  3:53.60 |     53075    |    70609
        5  | 15:41.35 |  4:03.70 |     70610    |    88904
        6  | 19:45.30 |  4:31.60 |     88905    |   109289
        7  | 24:17.15 |  3:53.11 |    109290    |   126775
        8  | 28:10.26 |  1:21.26 |    126776    |   132876
        9  | 29:31.52 |  4:40.42 |    132877    |   153918

Range status and errors

Selected range

     Filename D:\ELO\1977- Out Of The Blue (2CD JP 2007 Epic-Sony Music • MHCP-1157~8)\Electric Light Orchestra - Out Of The Blue CD1.wav

     Peak level 99.9 %
     Range quality 100.0 %
     Test CRC 5CB3ED57
     Copy CRC 5CB3ED57
     Copy OK

No errors occurred

AccurateRip summary

Track  1  accurately ripped (confidence 8)  [E0CD415C]
Track  2  accurately ripped (confidence 8)  [580F34F7]
Track  3  accurately ripped (confidence 8)  [ED6E3EA3]
Track  4  accurately ripped (confidence 8)  [59AAF8F5]
Track  5  accurately ripped (confidence 8)  [12E99482]
Track  6  accurately ripped (confidence 8)  [9634129E]
Track  7  accurately ripped (confidence 8)  [4DCD93E3]
Track  8  accurately ripped (confidence 8)  [F3DFFEB3]
Track  9  accurately ripped (confidence 8)  [5B348385]

All tracks accurately ripped

End of status report
Код:
Код:
-----------------------

DON'T MODIFY THIS FILE

-----------------------

PERFORMER: auCDtect Task Manager, ver. 1.5.1RC4 build 1.5.1.5
Copyright (c) 2008-2010 y-soft. All rights reserved
http:/y-soft.org

ANALYZER: auCDtect: CD records authenticity detector, version 0.8.2
Copyright (c) 2004 Oleg Berngardt. All rights reserved.
Copyright (c) 2004 Alexander Djourik. All rights reserved.

FILE: Electric Light Orchestra - Out Of The Blue CD1.wv
  Size: 224907822 Hash: E161F6E00D2D7994C3FEF05403190572 Accuracy: -m0
  Conclusion: CDDA 100%
  Signature: F1ED0D77600D2F0132E5C685AF399AE6E404D1CC
#777Треклист:
01. Standin'In The Rain (4:00)
02. Big Wheels (5:32)
03. Summer And Lightning (4:15)
04. Mr. Blue Sky (5:03)
05. Sweet Is The Night (3:28)
06. The Whale (5:07)
07. Birmingham Blues (4:24)
08. Wild West Hero (4:46)
09. Wild West Hero(Alt. Bridge) (0:26)
10. The Quick And The Druft (1:50)
11. Latitude 88 North (3:24)

Продолжительноcть: 00:42:15
Код:
Код:
Exact Audio Copy V0.99 prebeta 5 from 4. May 2009

EAC extraction logfile from 7. March 2012, 23:14

Electric Light Orchestra / Out Of The Blue CD2

Used drive  : ASUS    DRW-24B3ST   Adapter: 5  ID: 0

Read mode               : Secure
Utilize accurate stream : Yes
Defeat audio cache      : Yes
Make use of C2 pointers : No

Read offset correction                      : 6
Overread into Lead-In and Lead-Out          : No
Fill up missing offset samples with silence : Yes
Delete leading and trailing silent blocks   : No
Null samples used in CRC calculations       : Yes
Used interface                              : Native Win32 interface for Win NT & 2000

Used output format : Internal WAV Routines
Sample format      : 44.100 Hz; 16 Bit; Stereo

TOC of the extracted CD

     Track |   Start  |  Length  | Start sector | End sector
    ---------------------------------------------------------
        1  |  0:00.00 |  3:59.65 |         0    |    17989
        2  |  3:59.65 |  5:32.16 |     17990    |    42905
        3  |  9:32.06 |  4:14.71 |     42906    |    62026
        4  | 13:47.02 |  5:03.14 |     62027    |    84765
        5  | 18:50.16 |  3:28.06 |     84766    |   100371
        6  | 22:18.22 |  5:07.31 |    100372    |   123427
        7  | 27:25.53 |  4:23.49 |    123428    |   143201
        8  | 31:49.27 |  4:45.38 |    143202    |   164614
        9  | 36:34.65 |  0:26.14 |    164615    |   166578
       10  | 37:01.04 |  1:49.71 |    166579    |   174824
       11  | 38:51.00 |  3:24.18 |    174825    |   190142

Range status and errors

Selected range

     Filename D:\ELO\1977- Out Of The Blue (2CD JP 2007 Epic-Sony Music • MHCP-1157~8)\Electric Light Orchestra - Out Of The Blue CD2.wav

     Peak level 100.0 %
     Range quality 100.0 %
     Test CRC 50CFDE6E
     Copy CRC 50CFDE6E
     Copy OK

No errors occurred

AccurateRip summary

Track  1  accurately ripped (confidence 7)  [D4F96A60]
Track  2  accurately ripped (confidence 7)  [366EC789]
Track  3  accurately ripped (confidence 6)  [532BB6C5]
Track  4  accurately ripped (confidence 7)  [B9AFCB42]
Track  5  accurately ripped (confidence 7)  [E3ADBD02]
Track  6  accurately ripped (confidence 7)  [25249038]
Track  7  accurately ripped (confidence 7)  [2E1F2944]
Track  8  accurately ripped (confidence 7)  [7B48F8C4]
Track  9  accurately ripped (confidence 7)  [9B82126F]
Track 10  accurately ripped (confidence 7)  [8CE0A978]
Track 11  accurately ripped (confidence 7)  [8F5AC79E]

All tracks accurately ripped

End of status report
Код:
Код:
-----------------------

DON'T MODIFY THIS FILE

-----------------------

PERFORMER: auCDtect Task Manager, ver. 1.5.1RC4 build 1.5.1.5
Copyright (c) 2008-2010 y-soft. All rights reserved
http:/y-soft.org

ANALYZER: auCDtect: CD records authenticity detector, version 0.8.2
Copyright (c) 2004 Oleg Berngardt. All rights reserved.
Copyright (c) 2004 Alexander Djourik. All rights reserved.

FILE: Electric Light Orchestra - Out Of The Blue CD2.wv
  Size: 269758006 Hash: FD15E7759A1ECDEDB5CE596A495D7A3F Accuracy: -m0
  Conclusion: CDDA 100%
  Signature: AE5A26CF57AD9C837AB496F080A921AD3D14699E
#777Треклист:
01. Shine A Little Love (4:43)
02. Confusion (3:43)
03. Need Her Love (5:12)
04. The Diary Of Horace Wimp (4:18)
05. Last Train To London (4:31)
06. Midnight Blue (4:19)
07. On The Run (3:56)
08. Wishing (4:14)
09. Don't Bring Me Down (4:06)
10. On The Run (Home Demo) (1:01)
11. Second Time Around (Home Demo) (0:43)
12. Little Town Flirt (2:54)

Продолжительноcть: 00:43:40
Код:
Код:
Exact Audio Copy V0.99 prebeta 5 from 4. May 2009

EAC extraction logfile from 8. March 2012, 0:03

Electric Light Orchestra / Discovery

Used drive  : ASUS    DRW-24B3ST   Adapter: 4  ID: 0

Read mode               : Secure
Utilize accurate stream : Yes
Defeat audio cache      : Yes
Make use of C2 pointers : No

Read offset correction                      : 6
Overread into Lead-In and Lead-Out          : No
Fill up missing offset samples with silence : Yes
Delete leading and trailing silent blocks   : No
Null samples used in CRC calculations       : Yes
Used interface                              : Native Win32 interface for Win NT & 2000

Used output format : Internal WAV Routines
Sample format      : 44.100 Hz; 16 Bit; Stereo

TOC of the extracted CD

     Track |   Start  |  Length  | Start sector | End sector
    ---------------------------------------------------------
        1  |  0:00.00 |  4:42.50 |         0    |    21199
        2  |  4:42.50 |  3:42.60 |     21200    |    37909
        3  |  8:25.35 |  5:11.67 |     37910    |    61301
        4  | 13:37.27 |  4:17.70 |     61302    |    80646
        5  | 17:55.22 |  4:31.23 |     80647    |   100994
        6  | 22:26.45 |  4:19.00 |    100995    |   120419
        7  | 26:45.45 |  3:56.02 |    120420    |   138121
        8  | 30:41.47 |  4:13.50 |    138122    |   157146
        9  | 34:55.22 |  4:06.18 |    157147    |   175614
       10  | 39:01.40 |  1:01.35 |    175615    |   180224
       11  | 40:03.00 |  0:43.30 |    180225    |   183479
       12  | 40:46.30 |  2:53.65 |    183480    |   196519

Range status and errors

Selected range

     Filename D:\ELO\1979- Discovery (JP 2007 Epic-Sony Music • MHCP-1159)\Electric Light Orchestra - Discovery.wav

     Peak level 99.8 %
     Range quality 100.0 %
     Test CRC CB33B07A
     Copy CRC CB33B07A
     Copy OK

No errors occurred

AccurateRip summary

Track  1  accurately ripped (confidence 5)  [A54D249E]
Track  2  accurately ripped (confidence 5)  [CC550EC5]
Track  3  accurately ripped (confidence 5)  [CF75C4D3]
Track  4  accurately ripped (confidence 5)  [4D989679]
Track  5  accurately ripped (confidence 5)  [3FF25953]
Track  6  accurately ripped (confidence 5)  [BC2202FD]
Track  7  accurately ripped (confidence 5)  [8F229ADA]
Track  8  accurately ripped (confidence 5)  [9850DE94]
Track  9  accurately ripped (confidence 5)  [B61C129A]
Track 10  accurately ripped (confidence 5)  [A4A5E20C]
Track 11  accurately ripped (confidence 5)  [73F7F206]
Track 12  accurately ripped (confidence 5)  [7C2C3CAA]

All tracks accurately ripped

End of status report
Код:
Код:
-----------------------

DON'T MODIFY THIS FILE

-----------------------

PERFORMER: auCDtect Task Manager, ver. 1.5.1RC4 build 1.5.1.5
Copyright (c) 2008-2010 y-soft. All rights reserved
http:/y-soft.org

ANALYZER: auCDtect: CD records authenticity detector, version 0.8.2
Copyright (c) 2004 Oleg Berngardt. All rights reserved.
Copyright (c) 2004 Alexander Djourik. All rights reserved.

FILE: Electric Light Orchestra - Discovery.wv
  Size: 291549430 Hash: 924FF4F83069212E1BFBFDD3866DC206 Accuracy: -m0
  Conclusion: CDDA 100%
  Signature: 752768466E831569FB2BAA88F44FE3BB8EC76AD8
#777Треклист:
01. Prologue (1:16)
02. Twilight (3:42)
03. Yours Truly, 2095 (3:12)
04. Ticket To The Moon (4:07)
05. The Way Life's Meant To Be (4:39)
06. Another Heart Breaks (3:49)
07. Rain Is Falling (3:56)
08. From The End Of The World (3:17)
09. The Lights Go Down (3:33)
10. Here Is The News (3:50)
11. 21st Century Man (4:03)
12. Hold On Tight (3:07)
13. Epilogue (1:36)
14. The Bouncer (3:15)
15. When Time Stood Still (3:33)
16. Julie Don't Live Here (3:42)

Продолжительноcть: 00:54:36
Код:
Код:
Exact Audio Copy V0.99 prebeta 5 from 4. May 2009

EAC extraction logfile from 8. March 2012, 0:03

Electric Light Orchestra / Time

Used drive  : ASUS    DRW-24B3ST   Adapter: 5  ID: 0

Read mode               : Secure
Utilize accurate stream : Yes
Defeat audio cache      : Yes
Make use of C2 pointers : No

Read offset correction                      : 6
Overread into Lead-In and Lead-Out          : No
Fill up missing offset samples with silence : Yes
Delete leading and trailing silent blocks   : No
Null samples used in CRC calculations       : Yes
Used interface                              : Native Win32 interface for Win NT & 2000

Used output format : Internal WAV Routines
Sample format      : 44.100 Hz; 16 Bit; Stereo

TOC of the extracted CD

     Track |   Start  |  Length  | Start sector | End sector
    ---------------------------------------------------------
        1  |  0:00.00 |  1:16.35 |         0    |     5734
        2  |  1:16.35 |  3:41.65 |      5735    |    22374
        3  |  4:58.25 |  3:11.62 |     22375    |    36761
        4  |  8:10.12 |  4:07.25 |     36762    |    55311
        5  | 12:17.37 |  4:38.55 |     55312    |    76216
        6  | 16:56.17 |  3:49.28 |     76217    |    93419
        7  | 20:45.45 |  3:55.50 |     93420    |   111094
        8  | 24:41.20 |  3:16.47 |    111095    |   125841
        9  | 27:57.67 |  3:33.25 |    125842    |   141841
       10  | 31:31.17 |  3:49.65 |    141842    |   159081
       11  | 35:21.07 |  4:02.60 |    159082    |   177291
       12  | 39:23.67 |  3:06.40 |    177292    |   191281
       13  | 42:30.32 |  1:35.65 |    191282    |   198471
       14  | 44:06.22 |  3:14.50 |    198472    |   213071
       15  | 47:20.72 |  3:33.00 |    213072    |   229046
       16  | 50:53.72 |  3:42.20 |    229047    |   245716

Range status and errors

Selected range

     Filename D:\ELO\1981- Time (JP 2007 Epic-Sony Music • MHCP-1161)\Electric Light Orchestra - Time.wav

     Peak level 100.0 %
     Range quality 100.0 %
     Test CRC 5E539CBF
     Copy CRC 5E539CBF
     Copy OK

No errors occurred

AccurateRip summary

Track  1  accurately ripped (confidence 15)  [F2FDEEC7]
Track  2  accurately ripped (confidence 17)  [8AA14967]
Track  3  accurately ripped (confidence 17)  [C214E2B6]
Track  4  accurately ripped (confidence 17)  [609F1F93]
Track  5  accurately ripped (confidence 17)  [C323F871]
Track  6  accurately ripped (confidence 17)  [ED759719]
Track  7  accurately ripped (confidence 17)  [B80E7FC6]
Track  8  accurately ripped (confidence 15)  [8B8D79D0]
Track  9  accurately ripped (confidence 17)  [0BAB305C]
Track 10  accurately ripped (confidence 17)  [993D6FDD]
Track 11  accurately ripped (confidence 17)  [A4FDB70C]
Track 12  accurately ripped (confidence 17)  [DA06742E]
Track 13  accurately ripped (confidence 17)  [69C24EC6]
Track 14  accurately ripped (confidence 17)  [200F940B]
Track 15  accurately ripped (confidence 17)  [7DDA7E62]
Track 16  accurately ripped (confidence 15)  [FAF45F87]

All tracks accurately ripped

End of status report
Код:
Код:
-----------------------

DON'T MODIFY THIS FILE

-----------------------

PERFORMER: auCDtect Task Manager, ver. 1.5.1RC4 build 1.5.1.5
Copyright (c) 2008-2010 y-soft. All rights reserved
http:/y-soft.org

ANALYZER: auCDtect: CD records authenticity detector, version 0.8.2
Copyright (c) 2004 Oleg Berngardt. All rights reserved.
Copyright (c) 2004 Alexander Djourik. All rights reserved.

FILE: Electric Light Orchestra - Time.wv
  Size: 383906614 Hash: 44DB02EE91D21744CFB2F51DC30F63E8 Accuracy: -m0
  Conclusion: CDDA 100%
  Signature: 648C36FEC5A937CF1D850BFCA1934FD64E4FE9B0
#777Треклист:
01. Secret Messages (4:44)
02. Loser Gone Wild (5:27)
03. Bluebird (4:13)
04. Take Me On and On (4:58)
05. Time After Time (4:01)
06. Four Little Diamonds (4:05)
07. Stranger (4:27)
08. Danger Ahead (3:52)
09. Letter from Spain (2:51)
10. Train of Gold (4:21)
11. Rock & Roll Is King (3:49)
12. No Way Out (3:28)
13. Endless Lies (3:27)
14. After All (2:24)

Продолжительноcть: 00:56:08
Код:
Код:
Exact Audio Copy V0.99 prebeta 5 from 4. May 2009

EAC extraction logfile from 8. March 2012, 0:32

Electric Light Orchestra / Secret Messages

Used drive  : ASUS    DRW-24B3ST   Adapter: 4  ID: 0

Read mode               : Secure
Utilize accurate stream : Yes
Defeat audio cache      : Yes
Make use of C2 pointers : No

Read offset correction                      : 6
Overread into Lead-In and Lead-Out          : No
Fill up missing offset samples with silence : Yes
Delete leading and trailing silent blocks   : No
Null samples used in CRC calculations       : Yes
Used interface                              : Native Win32 interface for Win NT & 2000

Used output format : Internal WAV Routines
Sample format      : 44.100 Hz; 16 Bit; Stereo

TOC of the extracted CD

     Track |   Start  |  Length  | Start sector | End sector
    ---------------------------------------------------------
        1  |  0:00.00 |  4:43.55 |         0    |    21279
        2  |  4:43.55 |  5:27.25 |     21280    |    45829
        3  | 10:11.05 |  4:13.12 |     45830    |    64816
        4  | 14:24.17 |  4:57.65 |     64817    |    87156
        5  | 19:22.07 |  4:01.15 |     87157    |   105246
        6  | 23:23.22 |  4:05.20 |    105247    |   123641
        7  | 27:28.42 |  4:27.25 |    123642    |   143691
        8  | 31:55.67 |  3:52.15 |    143692    |   161106
        9  | 35:48.07 |  2:51.27 |    161107    |   173958
       10  | 38:39.34 |  4:20.56 |    173959    |   193514
       11  | 43:00.15 |  3:49.37 |    193515    |   210726
       12  | 46:49.52 |  3:28.15 |    210727    |   226341
       13  | 50:17.67 |  3:26.40 |    226342    |   241831
       14  | 53:44.32 |  2:23.73 |    241832    |   252629

Range status and errors

Selected range

     Filename D:\ELO\1983- Secret Messages (JP 2007 Epic-Sony Music • MHCP-1162)\Electric Light Orchestra - Secret Messages.wav

     Peak level 99.8 %
     Range quality 100.0 %
     Test CRC A1101C93
     Copy CRC A1101C93
     Copy OK

No errors occurred

AccurateRip summary

Track  1  accurately ripped (confidence 8)  [EE3F6BD3]
Track  2  accurately ripped (confidence 8)  [FE7CA6AF]
Track  3  accurately ripped (confidence 8)  [20A0DD17]
Track  4  accurately ripped (confidence 8)  [09CD10A4]
Track  5  accurately ripped (confidence 8)  [5B2132B6]
Track  6  accurately ripped (confidence 8)  [91A714C0]
Track  7  accurately ripped (confidence 8)  [B071913B]
Track  8  accurately ripped (confidence 8)  [0246F9D8]
Track  9  accurately ripped (confidence 8)  [12A8D0C1]
Track 10  accurately ripped (confidence 8)  [9FF54529]
Track 11  accurately ripped (confidence 8)  [F6BEF747]
Track 12  accurately ripped (confidence 8)  [F1A5D380]
Track 13  accurately ripped (confidence 8)  [0839D2E7]
Track 14  accurately ripped (confidence 8)  [C5B7CF14]

All tracks accurately ripped

End of status report
Код:
Код:
-----------------------

DON'T MODIFY THIS FILE

-----------------------

PERFORMER: auCDtect Task Manager, ver. 1.5.1RC4 build 1.5.1.5
Copyright (c) 2008-2010 y-soft. All rights reserved
http:/y-soft.org

ANALYZER: auCDtect: CD records authenticity detector, version 0.8.2
Copyright (c) 2004 Oleg Berngardt. All rights reserved.
Copyright (c) 2004 Alexander Djourik. All rights reserved.

FILE: Electric Light Orchestra - Secret Messages.wv
  Size: 384214889 Hash: 45F808B03BB2CEF41B29EFCAB76ADFBD Accuracy: -m0
  Conclusion: CDDA 62%
  Signature: CE0A26667ED5CC235563F699D17B984E5FF980EE
#777Треклист:
01. Heaven Only Knows (2:57)
02. So Serious (2:44)
03. Getting to the Point (4:30)
04. Secret Lives (3:32)
05. Is It Alright (3:27)
06. Sorrow About to Fall (4:05)
07. Without Someone (3:51)
08. Calling America (3:30)
09. Endless Lies (3:00)
10. Send It (3:10)
11. Opening (0:24)
12. Heaven Only Knows (Alternate Version) (2:35)
13. In for the Kill (3:16)
14. Secret Lives (Alternate Take) (3:27)
15. Sorrow About to Fall (Alternate Mix) (3:50)
16. Caught in a Trap (U.K. B-Side) (3:47)
17. Destination Unknown (U.K. B-Side) (4:10)

Продолжительноcть: 00:56:17
Код:
Код:
Exact Audio Copy V0.99 prebeta 5 from 4. May 2009

EAC extraction logfile from 8. March 2012, 0:32

Electric Light Orchestra / Balance Of Power

Used drive  : ASUS    DRW-24B3ST   Adapter: 5  ID: 0

Read mode               : Secure
Utilize accurate stream : Yes
Defeat audio cache      : Yes
Make use of C2 pointers : No

Read offset correction                      : 6
Overread into Lead-In and Lead-Out          : No
Fill up missing offset samples with silence : Yes
Delete leading and trailing silent blocks   : No
Null samples used in CRC calculations       : Yes
Used interface                              : Native Win32 interface for Win NT & 2000

Used output format : Internal WAV Routines
Sample format      : 44.100 Hz; 16 Bit; Stereo

TOC of the extracted CD

     Track |   Start  |  Length  | Start sector | End sector
    ---------------------------------------------------------
        1  |  0:00.00 |  2:56.40 |         0    |    13239
        2  |  2:56.40 |  2:43.64 |     13240    |    25528
        3  |  5:40.29 |  4:30.26 |     25529    |    45804
        4  | 10:10.55 |  3:32.05 |     45805    |    61709
        5  | 13:42.60 |  3:27.22 |     61710    |    77256
        6  | 17:10.07 |  4:04.49 |     77257    |    95605
        7  | 21:14.56 |  3:51.07 |     95606    |   112937
        8  | 25:05.63 |  3:30.37 |    112938    |   128724
        9  | 28:36.25 |  3:00.04 |    128725    |   142228
       10  | 31:36.29 |  3:10.24 |    142229    |   156502
       11  | 34:46.53 |  0:24.15 |    156503    |   158317
       12  | 35:10.68 |  2:34.58 |    158318    |   169925
       13  | 37:45.51 |  3:16.15 |    169926    |   184640
       14  | 41:01.66 |  3:27.02 |    184641    |   200167
       15  | 44:28.68 |  3:50.32 |    200168    |   217449
       16  | 48:19.25 |  3:47.34 |    217450    |   234508
       17  | 52:06.59 |  4:10.24 |    234509    |   253282

Range status and errors

Selected range

     Filename D:\ELO\1986- Balance Of Power (JP 2007 Epic-Sony Music • MHCP-1163)\Electric Light Orchestra - Balance Of Power.wav

     Peak level 100.0 %
     Range quality 99.9 %
     Test CRC FD57A050
     Copy CRC FD57A050
     Copy OK

No errors occurred

AccurateRip summary

Track  1  accurately ripped (confidence 5)  [0F702DC7]
Track  2  accurately ripped (confidence 5)  [9A0652DB]
Track  3  accurately ripped (confidence 5)  [0749588F]
Track  4  accurately ripped (confidence 5)  [463F5084]
Track  5  accurately ripped (confidence 5)  [F9A41722]
Track  6  accurately ripped (confidence 5)  [414BDFFC]
Track  7  accurately ripped (confidence 5)  [1226C436]
Track  8  accurately ripped (confidence 5)  [DDAD3B85]
Track  9  accurately ripped (confidence 5)  [9161AF2C]
Track 10  accurately ripped (confidence 5)  [8133C1FF]
Track 11  accurately ripped (confidence 3)  [E44751C7]
Track 12  accurately ripped (confidence 5)  [77EF6376]
Track 13  accurately ripped (confidence 4)  [B6D81BBB]
Track 14  accurately ripped (confidence 5)  [D76A8D6D]
Track 15  accurately ripped (confidence 3)  [6512183C]
Track 16  accurately ripped (confidence 4)  [7720EB5D]
Track 17  accurately ripped (confidence 5)  [9ED62F91]

All tracks accurately ripped

End of status report
Код:
Код:
-----------------------

DON'T MODIFY THIS FILE

-----------------------

PERFORMER: auCDtect Task Manager, ver. 1.5.1RC4 build 1.5.1.5
Copyright (c) 2008-2010 y-soft. All rights reserved
http:/y-soft.org

ANALYZER: auCDtect: CD records authenticity detector, version 0.8.2
Copyright (c) 2004 Oleg Berngardt. All rights reserved.
Copyright (c) 2004 Alexander Djourik. All rights reserved.

FILE: Electric Light Orchestra - Balance Of Power.wv
  Size: 378904402 Hash: 8684968F4C3C5B0505399E468E355A08 Accuracy: -m0
  Conclusion: CDDA 100%
  Signature: 90D72CB6D60257508C7CDBE758DB808472AF864C
#777Треклист:
01. Alright (3:13)
02. Moment In Paradise (3:36)
03. State Of Mind (3:05)
04. Just For Love (3:40)
05. Stranger On A Quiet Street (3:41)
06. In My Own Time (3:04)
07. Easy Money (2:51)
08. It Really Doesn't Matter (3:20)
09. Ordinary Dream (3:24)
10. A Long Time Gone (3:16)
11. Melting In The Sun (3:11)
12. All She Wanted (3:14)
13. Lonesome Lullaby (4:05)
14. Long Black Road (bonus track) (3:22)

Продолжительноcть: 00:47:01
Код:
Код:
Exact Audio Copy V0.99 prebeta 5 from 4. May 2009

EAC extraction logfile from 8. March 2012, 1:04

Electric Light Orchestra / Zoom

Used drive  : ASUS    DRW-24B3ST   Adapter: 4  ID: 0

Read mode               : Secure
Utilize accurate stream : Yes
Defeat audio cache      : Yes
Make use of C2 pointers : No

Read offset correction                      : 6
Overread into Lead-In and Lead-Out          : No
Fill up missing offset samples with silence : Yes
Delete leading and trailing silent blocks   : No
Null samples used in CRC calculations       : Yes
Used interface                              : Native Win32 interface for Win NT & 2000

Used output format : Internal WAV Routines
Sample format      : 44.100 Hz; 16 Bit; Stereo

TOC of the extracted CD

     Track |   Start  |  Length  | Start sector | End sector
    ---------------------------------------------------------
        1  |  0:00.00 |  3:12.52 |         0    |    14451
        2  |  3:12.52 |  3:36.03 |     14452    |    30654
        3  |  6:48.55 |  3:04.55 |     30655    |    44509
        4  |  9:53.35 |  3:40.27 |     44510    |    61036
        5  | 13:33.62 |  3:41.08 |     61037    |    77619
        6  | 17:14.70 |  3:03.59 |     77620    |    91403
        7  | 20:18.54 |  2:51.00 |     91404    |   104228
        8  | 23:09.54 |  3:20.06 |    104229    |   119234
        9  | 26:29.60 |  3:23.42 |    119235    |   134501
       10  | 29:53.27 |  3:15.70 |    134502    |   149196
       11  | 33:09.22 |  3:10.53 |    149197    |   163499
       12  | 36:20.00 |  3:14.10 |    163500    |   178059
       13  | 39:34.10 |  4:04.42 |    178060    |   196401
       14  | 43:38.52 |  3:22.33 |    196402    |   211584

Range status and errors

Selected range

     Filename D:\ELO\2001- Zoom (JP Sony Music International • SRCS-2466)\Electric Light Orchestra - Zoom.wav

     Peak level 98.9 %
     Range quality 100.0 %
     Test CRC 5F1FC497
     Copy CRC 5F1FC497
     Copy OK

No errors occurred

AccurateRip summary

Track  1  accurately ripped (confidence 4)  [7AD15554]
Track  2  accurately ripped (confidence 4)  [B65712B0]
Track  3  accurately ripped (confidence 4)  [96809B2F]
Track  4  accurately ripped (confidence 4)  [DD2E5BC9]
Track  5  accurately ripped (confidence 4)  [F29BE356]
Track  6  accurately ripped (confidence 4)  [54E28B9E]
Track  7  accurately ripped (confidence 4)  [6D12C6B7]
Track  8  accurately ripped (confidence 4)  [F19B483B]
Track  9  accurately ripped (confidence 4)  [193BBE05]
Track 10  accurately ripped (confidence 4)  [DCAF42B0]
Track 11  accurately ripped (confidence 4)  [2079E0D7]
Track 12  accurately ripped (confidence 4)  [DE03B777]
Track 13  accurately ripped (confidence 4)  [9252A8DC]
Track 14  accurately ripped (confidence 2)  [7C8096DD]

All tracks accurately ripped

End of status report
Код:
Код:
-----------------------

DON'T MODIFY THIS FILE

-----------------------

PERFORMER: auCDtect Task Manager, ver. 1.5.1RC4 build 1.5.1.5
Copyright (c) 2008-2010 y-soft. All rights reserved
http:/y-soft.org

ANALYZER: auCDtect: CD records authenticity detector, version 0.8.2
Copyright (c) 2004 Oleg Berngardt. All rights reserved.
Copyright (c) 2004 Alexander Djourik. All rights reserved.

FILE: Electric Light Orchestra - Zoom.wv
  Size: 325565026 Hash: B00F30628764D9DCBF5052329E0C5F0F Accuracy: -m0
  Conclusion: CDDA 100%
  Signature: 472580D379DA4ECE384D0B4B61BE5822153A26B1

Правила, инструкции, FAQ!!!
Торрент  Добавлен [16 мар 2014, 00:14] Скачать торрент Магнет ссылка
Скачать торрент
[ Размер 52.53 КБ / Просмотров 108 ]

Статус  
 
Размер  4.61 ГБ
Приватный: Нет (DHT включён)
.torrent скачан  1
 


     Отправить личное сообщение
   
Страница 1 из 1
Показать сообщения за:  Поле сортировки  
Начать новую тему Ответить на тему


Сейчас этот форум просматривают: нет зарегистрированных пользователей и гости: 0


Вы не можете начинать темы
Вы не можете отвечать на сообщения
Вы не можете редактировать свои сообщения
Вы не можете удалять свои сообщения
Вы не можете добавлять вложения

Перейти:  
cron
cron