Начать новую тему Ответить на тему
Статистика раздачи
Размер: 166.56 МБ | Добавлен: 16 мар 2014, 00:03 | Скачали: 0
Сидеров: 1  [0 байт/сек]    Личеров: 65  [0 байт/сек]
Пред. тема | След. тема 

Автор
Сообщение

СообщениеДобавлено: 16 мар 2014, 00:03 

Ответить с цитатой 

Elder Kindred - Kindred Spirits (1973) Reissue 2011

Жанр: Rock/Progressive Rock
Год: 1973
Страна: UK
Released: 2011/Russia
Label: Dogtoire Records
Catalog#: DGCD100120
Аудио кодек: FLAC
Тип рипа: tracks+.cue
Битрейт аудио: lossless
Продолжительность: 00:47:20
Источник-релизер: bzp01
Scans: в раздаче
Треклист:
01. Playing To You (3:39)
02. Work Song (4:50)
03. Castles (5:22)
04. To The Old And Young (4:55)
05. Finding Out (7:29)
06. Saga (5:57)
07. Rape (6:29)
08. Superior Camp (8:40)
Код:
Код:
Exact Audio Copy V0.99 prebeta 4 from 23. January 2008

EAC extraction logfile from 4. November 2011, 5:25

Elder Kindred / Kindred Spirits

Used drive  : ASUS    DRW-24B3ST   Adapter: 3  ID: 0

Read mode               : Secure
Utilize accurate stream : Yes
Defeat audio cache      : Yes
Make use of C2 pointers : No

Read offset correction                      : 6
Overread into Lead-In and Lead-Out          : No
Fill up missing offset samples with silence : Yes
Delete leading and trailing silent blocks   : No
Null samples used in CRC calculations       : Yes
Used interface                              : Native Win32 interface for Win NT & 2000
Gap handling                                : Appended to previous track

Used output format : Internal WAV Routines
Sample format      : 44.100 Hz; 16 Bit; Stereo

TOC of the extracted CD

     Track |   Start  |  Length  | Start sector | End sector
    ---------------------------------------------------------
        1  |  0:00.00 |  3:39.15 |         0    |    16439
        2  |  3:39.15 |  4:49.41 |     16440    |    38155
        3  |  8:28.56 |  5:21.48 |     38156    |    62278
        4  | 13:50.29 |  4:55.04 |     62279    |    84407
        5  | 18:45.33 |  7:28.49 |     84408    |   118056
        6  | 26:14.07 |  5:56.70 |    118057    |   144826
        7  | 32:11.02 |  6:28.65 |    144827    |   173991
        8  | 38:39.67 |  8:40.02 |    173992    |   212993

Track  1

     Filename C:\Elder Kindred - Kindred Spirits (1973)\01 - Playing To You.wav

     Pre-gap length  0:00:02.00

     Peak level 98.3 %
     Track quality 100.0 %
     Test CRC 5E433283
     Copy CRC 5E433283
     Track not present in AccurateRip database
     Copy OK

Track  2

     Filename C:\Elder Kindred - Kindred Spirits (1973)\02 - Work Song.wav

     Peak level 84.2 %
     Track quality 99.9 %
     Test CRC D5E41E65
     Copy CRC D5E41E65
     Track not present in AccurateRip database
     Copy OK

Track  3

     Filename C:\Elder Kindred - Kindred Spirits (1973)\03 - Castles.wav

     Peak level 87.4 %
     Track quality 100.0 %
     Test CRC A69FC542
     Copy CRC A69FC542
     Track not present in AccurateRip database
     Copy OK

Track  4

     Filename C:\Elder Kindred - Kindred Spirits (1973)\04 - To The Old And Young.wav

     Peak level 100.0 %
     Track quality 100.0 %
     Test CRC AB3E6261
     Copy CRC AB3E6261
     Track not present in AccurateRip database
     Copy OK

Track  5

     Filename C:\Elder Kindred - Kindred Spirits (1973)\05 - Finding Out.wav

     Peak level 100.0 %
     Track quality 100.0 %
     Test CRC F2EACC68
     Copy CRC F2EACC68
     Track not present in AccurateRip database
     Copy OK

Track  6

     Filename C:\Elder Kindred - Kindred Spirits (1973)\06 - Saga.wav

     Peak level 100.0 %
     Track quality 99.9 %
     Test CRC CA1E94B3
     Copy CRC CA1E94B3
     Track not present in AccurateRip database
     Copy OK

Track  7

     Filename C:\Elder Kindred - Kindred Spirits (1973)\07 - Rape.wav

     Peak level 99.1 %
     Track quality 99.9 %
     Test CRC 419AA784
     Copy CRC 419AA784
     Track not present in AccurateRip database
     Copy OK

Track  8

     Filename C:\Elder Kindred - Kindred Spirits (1973)\08 - Superior Camp.wav

     Peak level 95.1 %
     Track quality 99.9 %
     Test CRC 91B19CEF
     Copy CRC 91B19CEF
     Track not present in AccurateRip database
     Copy OK

None of the tracks are present in the AccurateRip database

No errors occurred

End of status report
Код:
Код:
-----------------------

DON'T MODIFY THIS FILE

-----------------------

PERFORMER: auCDtect Task Manager, ver. 1.5.1RC4 build 1.5.1.5
Copyright (c) 2008-2010 y-soft. All rights reserved
http:/y-soft.org

ANALYZER: auCDtect: CD records authenticity detector, version 0.8.2
Copyright (c) 2004 Oleg Berngardt. All rights reserved.
Copyright (c) 2004 Alexander Djourik. All rights reserved.

FILE: 02 - Work Song.flac
  Size: 16843549 Hash: C6BC503BD9F082C3AEDE430087BC7721 Accuracy: -m0
  Conclusion: CDDA 99%
  Signature: 32EF5C7B2013F8C2BC7A3D8BF8133F7D68513148
FILE: 01 - Playing To You.flac
  Size: 13202575 Hash: E92CCDC603D067C6A22E3801FC774FA5 Accuracy: -m0
  Conclusion: CDDA 100%
  Signature: 3527C6D1C2A7226D0E7ECCA777E3B23A5BA4BE28
FILE: 08 - Superior Camp.flac
  Size: 32908651 Hash: 991CB1A40D47E785838A6559A469525E Accuracy: -m0
  Conclusion: CDDA 87%
  Signature: 881C25203BC3C0AC7783EC2ABF55F79414924D9A
FILE: 07 - Rape.flac
  Size: 23145380 Hash: 3CAF48AA4ED5E53E9814ADDFA5260EFF Accuracy: -m0
  Conclusion: CDDA 100%
  Signature: 228E1846CECAD63876B74677E210EDEFD34BAB52
FILE: 06 - Saga.flac
  Size: 20871309 Hash: EC79253358325CD3E7CA5257FDA298EA Accuracy: -m0
  Conclusion: CDDA 100%
  Signature: 78586D43BB10D2542C2C580BB84AB8F123BB0C84
FILE: 05 - Finding Out.flac
  Size: 28406279 Hash: 8005C8ECF64DD51898CDF8B4E85AB03C Accuracy: -m0
  Conclusion: CDDA 100%
  Signature: D86835FA31900F75952C8F67324847226DAE448E
FILE: 04 - To The Old And Young.flac
  Size: 17835108 Hash: 795968D5DF8BDEC8756FB81980CC83B3 Accuracy: -m0
  Conclusion: CDDA 100%
  Signature: E8E0201EEAEBCCBF428AD3C19D5D77A7F08A3C8B
FILE: 03 - Castles.flac
  Size: 18592824 Hash: 9BCAC2662C7D1F48A7FEE720A31A70C3 Accuracy: -m0
  Conclusion: CDDA 100%
  Signature: 4F448A46690AC880FCF652E6A74B952FB1A5A65E
Код:
Код:
REM GENRE Rock
REM DATE 1973
REM DISCID 500B1708
REM COMMENT "ExactAudioCopy v0.99pb4"
PERFORMER "Elder Kindred"
TITLE "Kindred Spirits"
FILE "01 - Playing To You.wav" WAVE
  TRACK 01 AUDIO
    TITLE "Playing To You"
    PERFORMER "Elder Kindred"
    INDEX 01 00:00:00
FILE "02 - Work Song.wav" WAVE
  TRACK 02 AUDIO
    TITLE "Work Song"
    PERFORMER "Elder Kindred"
    INDEX 01 00:00:00
FILE "03 - Castles.wav" WAVE
  TRACK 03 AUDIO
    TITLE "Castles"
    PERFORMER "Elder Kindred"
    INDEX 01 00:00:00
FILE "04 - To The Old And Young.wav" WAVE
  TRACK 04 AUDIO
    TITLE "To The Old And Young"
    PERFORMER "Elder Kindred"
    INDEX 01 00:00:00
FILE "05 - Finding Out.wav" WAVE
  TRACK 05 AUDIO
    TITLE "Finding Out"
    PERFORMER "Elder Kindred"
    INDEX 01 00:00:00
FILE "06 - Saga.wav" WAVE
  TRACK 06 AUDIO
    TITLE "Saga"
    PERFORMER "Elder Kindred"
    INDEX 01 00:00:00
FILE "07 - Rape.wav" WAVE
  TRACK 07 AUDIO
    TITLE "Rape"
    PERFORMER "Elder Kindred"
    INDEX 01 00:00:00
FILE "08 - Superior Camp.wav" WAVE
  TRACK 08 AUDIO
    TITLE "Superior Camp"
    PERFORMER "Elder Kindred"
    INDEX 01 00:00:00

Костяк группы сформировали выходцы из Slow Dog. На протяжении нескольких лет ребята давали концерты по британским клубам и колледжам, зачастую выступая на разогреве у восходящих звезд - Uriah Heep, ELO, Renaissance и др. После некоторых пертурбаций в рядах колектива наконец то выкристализовался состав, которым и были записаны все основные треки данного альбома. С первых же тактов открывающей диск песни "Playing to You" становится ясно: перед нами хранители славных традиций The Moody Blues. Характерная ритм-н-блюзовая основа, мелодичность и легкий фолковый флер вызывают вполне четкие ассоциации. Чередование бодрых заводных композиций с проникновенными балладами - из той же серии. Однако воспринимать Elder Kindred в качестве подражателей было бы в корне неверно. Они - дети своего времени, достойно делившие сцену с такими коллегами по жанру, как Cressida и Spring (в сравнении с первыми, быть может, не столь искусные в исполнительском мастерстве, но уж и не менее душевные, чем вторые). Звуковая картина релиза примерно следующая: активное использование напевного многоголосия, мягкие "разлапистые" партии органа серии Vox Continental и электрического пиано, электроакустические переборы гитары, трели флейты - то шаловливой, напоминающей весенний ветерок, то рефлексивно-задумчивой. Из восьми представленных номеров лишь четыре относятся к 1973-му году. Оставшаяся половина демонстрирует деятельность группы в их начальный период: тогда на басу играл Крис Кёртис, а на правах ведущего духового инструмента вместе с флейтой использовался сакс. Впрочем, ранний репертуар стилистически выдержан в вышеозначенной манере, а значит, целостность пластинки не нарушается.

Musicians:
- Nick Hemery - vocals, guitar
- Geoff Knibbs - bass, acoustic guitar, vocals
- I van Ward - alto saxophone, flute, percussion
- Vincent Loakes - drums
- Simon Judd - keyboards
- Chris Curtis - bass, vocals (1971)
Правила, инструкции, FAQ!!!
Торрент  Добавлен [16 мар 2014, 00:03] Скачать торрент Магнет ссылка
Скачать торрент
[ Размер 14.63 КБ / Просмотров 25 ]

Статус  
 
Размер  166.56 МБ
Приватный: Нет (DHT включён)
.torrent скачан  0
 


     Отправить личное сообщение
   
Страница 1 из 1
Показать сообщения за:  Поле сортировки  
Начать новую тему Ответить на тему


Сейчас этот форум просматривают: нет зарегистрированных пользователей и гости: 0


Вы не можете начинать темы
Вы не можете отвечать на сообщения
Вы не можете редактировать свои сообщения
Вы не можете удалять свои сообщения
Вы не можете добавлять вложения

Перейти:  
cron
cron