Начать новую тему Ответить на тему
Статистика раздачи
Размер: 252.54 МБ | Добавлен: 16 мар 2014, 00:55 | Скачали: 1
Сидеров: 3  [0 байт/сек]    Личеров: 1  [0 байт/сек]
Пред. тема | След. тема 

Автор
Сообщение

СообщениеДобавлено: 16 мар 2014, 00:55 

Ответить с цитатой 

Edwyn Collins - Understated (2013)

Год: 2013
Жанр: Rock, Indie Rock
Страна: UK
Страна-производитель диска: UK
Издатель (лейбл): AED Records | #: AEDEC18CD
Наличие сканов в содержимом раздачи: нет
Источник (релизер): ambar1973
Продолжительность: 00:41:14

Кодек: FLAC
Битрейт: Lossless

Треклист:
1. Dilemma
2. Baby Jean
3. Carry On, Carry On
4. 31 Years
5. It’s A Reason
6. Too Bad
7. Down The Line
8. Forsooth
9. In The Now
10. Understated
11. Love’s Been Good To Me
Код:
Код:
Exact Audio Copy V1.0 beta 3 from 29. August 2011

EAC extraction logfile from 2. July 2013, 20:03

Edwyn Collins / Understated

Used drive  : PLDS    DVD-RW DS8A8SH   Adapter: 1  ID: 0

Read mode               : Secure
Utilize accurate stream : Yes
Defeat audio cache      : Yes
Make use of C2 pointers : No

Read offset correction                      : 6
Overread into Lead-In and Lead-Out          : No
Fill up missing offset samples with silence : Yes
Delete leading and trailing silent blocks   : No
Null samples used in CRC calculations       : Yes
Used interface                              : Native Win32 interface for Win NT & 2000
Gap handling                                : Appended to previous track

Used output format              : User Defined Encoder
Selected bitrate                : 1024 kBit/s
Quality                         : High
Add ID3 tag                     : No
Command line compressor         : C:\Program Files (x86)\FLAC\flac.exe
Additional command line options : -8 -V -T "ARTIST=%artist%" -T "TITLE=%title%" -T "ALBUM=%albumtitle%" -T "DATE=%year%" -T "TRACKNUMBER=%tracknr%" -T "GENRE=%genre%" -T "PERFORMER=%albuminterpret%" -T "COMPOSER=%composer%" %haslyrics%--tag-from-file=LYRICS="%lyricsfile%"%haslyrics% -T "ALBUMARTIST=%albumartist%" -T "DISCNUMBER=%cdnumber%" -T "TOTALDISCS=%totalcds%" -T "TOTALTRACKS=%numtracks%" -T "COMMENT=%comment%" %source% -o %dest%

TOC of the extracted CD

     Track |   Start  |  Length  | Start sector | End sector
    ---------------------------------------------------------
        1  |  0:00.00 |  3:26.43 |         0    |    15492
        2  |  3:26.43 |  3:27.72 |     15493    |    31089
        3  |  6:54.40 |  4:05.31 |     31090    |    49495
        4  | 10:59.71 |  3:58.72 |     49496    |    67417
        5  | 14:58.68 |  4:06.63 |     67418    |    85930
        6  | 19:05.56 |  3:20.07 |     85931    |   100937
        7  | 22:25.63 |  4:29.00 |    100938    |   121112
        8  | 26:54.63 |  4:10.02 |    121113    |   139864
        9  | 31:04.65 |  3:46.36 |    139865    |   156850
       10  | 34:51.26 |  3:01.45 |    156851    |   170470
       11  | 37:52.71 |  3:21.39 |    170471    |   185584

Track  1

     Filename A:\MUZIK\FLAC\Edwyn\01 Dilemna.wav

     Pre-gap length  0:00:02.00

     Peak level 96.2 %
     Extraction speed 1.7 X
     Track quality 100.0 %
     Test CRC AD298EB9
     Copy CRC AD298EB9
     Accurately ripped (confidence 1)  [AB961B3A]  (AR v2)
     Copy OK

Track  2

     Filename A:\MUZIK\FLAC\Edwyn\02 Baby Jean.wav

     Peak level 96.2 %
     Extraction speed 1.9 X
     Track quality 100.0 %
     Test CRC 207F70BD
     Copy CRC 207F70BD
     Accurately ripped (confidence 1)  [805889F6]  (AR v2)
     Copy OK

Track  3

     Filename A:\MUZIK\FLAC\Edwyn\03 Carry On, Carry On.wav

     Peak level 96.2 %
     Extraction speed 2.1 X
     Track quality 100.0 %
     Test CRC E9F29903
     Copy CRC E9F29903
     Accurately ripped (confidence 1)  [4E885D58]  (AR v2)
     Copy OK

Track  4

     Filename A:\MUZIK\FLAC\Edwyn\04 31 Years.wav

     Peak level 96.2 %
     Extraction speed 2.3 X
     Track quality 100.0 %
     Test CRC DBC0280C
     Copy CRC DBC0280C
     Accurately ripped (confidence 1)  [3B1288E8]  (AR v2)
     Copy OK

Track  5

     Filename A:\MUZIK\FLAC\Edwyn\05 It's a Reason.wav

     Peak level 96.2 %
     Extraction speed 2.5 X
     Track quality 100.0 %
     Test CRC C0C7B281
     Copy CRC C0C7B281
     Accurately ripped (confidence 1)  [4F012FEC]  (AR v2)
     Copy OK

Track  6

     Filename A:\MUZIK\FLAC\Edwyn\06 Too Bad (That's Sad).wav

     Peak level 96.2 %
     Extraction speed 2.5 X
     Track quality 100.0 %
     Test CRC CCD19A98
     Copy CRC CCD19A98
     Accurately ripped (confidence 1)  [AA11D289]  (AR v2)
     Copy OK

Track  7

     Filename A:\MUZIK\FLAC\Edwyn\07 Down the Line.wav

     Peak level 96.2 %
     Extraction speed 2.8 X
     Track quality 100.0 %
     Test CRC 27E6330F
     Copy CRC 27E6330F
     Accurately ripped (confidence 1)  [3BE4FE0B]  (AR v2)
     Copy OK

Track  8

     Filename A:\MUZIK\FLAC\Edwyn\08 Forsooth.wav

     Peak level 96.2 %
     Extraction speed 2.9 X
     Track quality 100.0 %
     Test CRC F36C5B3A
     Copy CRC F36C5B3A
     Accurately ripped (confidence 1)  [494BDC48]  (AR v2)
     Copy OK

Track  9

     Filename A:\MUZIK\FLAC\Edwyn\09 In the Now.wav

     Peak level 96.2 %
     Extraction speed 3.0 X
     Track quality 100.0 %
     Test CRC 6704AE16
     Copy CRC 6704AE16
     Accurately ripped (confidence 1)  [D8A5A878]  (AR v2)
     Copy OK

Track 10

     Filename A:\MUZIK\FLAC\Edwyn\10 Understated.wav

     Peak level 96.2 %
     Extraction speed 2.2 X
     Track quality 99.9 %
     Test CRC C2CABB1C
     Copy CRC C2CABB1C
     Accurately ripped (confidence 1)  [42661C53]  (AR v2)
     Copy OK

Track 11

     Filename A:\MUZIK\FLAC\Edwyn\11 Love's Been Good to Me.wav

     Peak level 61.3 %
     Extraction speed 2.3 X
     Track quality 99.9 %
     Test CRC 2C3BCE10
     Copy CRC 2C3BCE10
     Accurately ripped (confidence 1)  [12B2747A]  (AR v2)
     Copy OK

All tracks accurately ripped

No errors occurred

End of status report
Код:
Код:
-----------------------

DON'T MODIFY THIS FILE

-----------------------

PERFORMER: auCDtect Task Manager, ver. 1.6.0 RC1 build 1.6.0.1
Copyright (c) 2008-2010 y-soft. All rights reserved
http:/y-soft.org

ANALYZER: auCDtect: CD records authenticity detector, version 0.8.2
Copyright (c) 2004 Oleg Berngardt. All rights reserved.
Copyright (c) 2004 Alexander Djourik. All rights reserved.

FILE: 11 Love's Been Good to Me.flac
  Size: 16456582 Hash: 4CEFAAC94DAF7A37C21CADD88CAAF53D Accuracy: -m0
  Conclusion: CDDA 100%
  Signature: D099C4202B1D857A1B2A2786B2E1078B4DED7C2A
FILE: 10 Understated.flac
  Size: 20160919 Hash: 4FD02B3797324E9F0A4D7BE385B46D41 Accuracy: -m0
  Conclusion: CDDA 100%
  Signature: 419C467120BEA58B9140D4A70A6B5AF8E5A86B93
FILE: 09 In the Now.flac
  Size: 26822311 Hash: 699D691907511AF07B9688578B601BB3 Accuracy: -m0
  Conclusion: CDDA 100%
  Signature: 9EF59CB8E9A3F03B75B71ACB04D27939CD88FC78
FILE: 08 Forsooth.flac
  Size: 24661539 Hash: F853E2A1BA6DDE7AB8598B03FB7CAD06 Accuracy: -m0
  Conclusion: CDDA 100%
  Signature: D041764C3B1C9B2C4BB6D3AAB26401D30FDF6434
FILE: 07 Down the Line.flac
  Size: 25427026 Hash: F9AB173A22C258F085B3154281BBE82A Accuracy: -m0
  Conclusion: CDDA 100%
  Signature: 08309DA05944A896EC9D2013EC723A245F5DA2BA
FILE: 06 Too Bad (That's Sad).flac
  Size: 22880126 Hash: E5BF0CA9A411AC0D2E7C86999B24D7FB Accuracy: -m0
  Conclusion: CDDA 100%
  Signature: 6E0DFE13BDF3DFEE08126672BB3A6CA0B29D0D0D
FILE: 05 It's a Reason.flac
  Size: 23968393 Hash: 3F0F960DE2592E5C0D4BD3807D3E25F8 Accuracy: -m0
  Conclusion: CDDA 100%
  Signature: BF818BB594ECDDA1EE8579D2E6D9F9E4C0234B58
FILE: 04 31 Years.flac
  Size: 28056534 Hash: D1F2860DFC1CF8BF1CC305241B782FE8 Accuracy: -m0
  Conclusion: CDDA 100%
  Signature: 5A04B0ACCCF46C897C2DC5500840A5FD6877BEE4
FILE: 03 Carry On, Carry On.flac
  Size: 29303513 Hash: BC6738473488D7083EA68CA5EB9AC20F Accuracy: -m0
  Conclusion: CDDA 100%
  Signature: 171778A9099CE4841B19FBAC5F1942EBE4FE8667
FILE: 02 Baby Jean.flac
  Size: 22489263 Hash: 75AE0626D7242EF73124C7E3E46DE75B Accuracy: -m0
  Conclusion: CDDA 100%
  Signature: 45BF921AA421958F44793ACB02EEC2F2071D1586
FILE: 01 Dilemna.flac
  Size: 24495160 Hash: C95C961CE45FEEE8604BC52DD9538B51 Accuracy: -m0
  Conclusion: CDDA 100%
  Signature: 87624147D89462016BD91DA392D79160BE25F06F

Правила, инструкции, FAQ!!!
Торрент  Добавлен [16 мар 2014, 00:55] Скачать торрент Магнет ссылка
Скачать торрент
[ Размер 21.14 КБ / Просмотров 20 ]

Статус  
 
Размер  252.54 МБ
Приватный: Нет (DHT включён)
.torrent скачан  1
 


     Отправить личное сообщение
   
Страница 1 из 1
Показать сообщения за:  Поле сортировки  
Начать новую тему Ответить на тему


Сейчас этот форум просматривают: нет зарегистрированных пользователей и гости: 0


Вы не можете начинать темы
Вы не можете отвечать на сообщения
Вы не можете редактировать свои сообщения
Вы не можете удалять свои сообщения
Вы не можете добавлять вложения

Перейти:  
cron