Начать новую тему Ответить на тему
Статистика раздачи
Размер: 387.49 МБ | Добавлен: 16 мар 2014, 00:55 | Скачали: 5
Сидеров: 2  [0 байт/сек]    Личеров: 1  [0 байт/сек]
Пред. тема | След. тема 

Автор
Сообщение

СообщениеДобавлено: 16 мар 2014, 00:55 

Ответить с цитатой 

Edwyn Collins - Gorgeous George (1994)

Год: 1994
Жанр: Rock, Brit Pop
Страна: UK
Страна-производитель диска: France
Издатель (лейбл): Setanta Records | #: 7243 8 39896 2 1
Наличие сканов в содержимом раздачи: да
Источник (релизер): glebchic / deaddealer
Продолжительность: 00:58:10

Кодек: FLAC
Битрейт: Lossless

Треклист:
1. The Campaign For Real Rock (6:36)
2. A Girl Like You (3:59)
3. Low Expectations (3:59)
4. Out Of This World (5:37)
5. If You Could Love Me (5:31)
6. North Of Heaven (3:39)
7. Gorgeous George (4:09)
8. It's Right In Front Of You (6:26)
9. Make Me Feel Again (4:23)
10. I've Got It Bad (4:41)
11. Subsidence (5:44)
12. Moron (3:26)
Код:
Код:
Exact Audio Copy V0.99 prebeta 3 from 28. July 2007

EAC extraction logfile from 6. September 2010, 17:11

Edwyn Collins / Gorgeous George

Used drive  : _NEC    DVD_RW ND-2510A   Adapter: 1  ID: 0

Read mode               : Secure
Utilize accurate stream : Yes
Defeat audio cache      : Yes
Make use of C2 pointers : No

Read offset correction                      : 48
Overread into Lead-In and Lead-Out          : No
Fill up missing offset samples with silence : Yes
Delete leading and trailing silent blocks   : No
Null samples used in CRC calculations       : Yes
Used interface                              : Native Win32 interface for Win NT & 2000

Used output format              : User Defined Encoder
Selected bitrate                : 1024 kBit/s
Quality                         : High
Add ID3 tag                     : No
Command line compressor         : C:\Program Files\Exact Audio Copy\Flac\flac.exe
Additional command line options : -8 -V %s

TOC of the extracted CD

     Track |   Start  |  Length  | Start sector | End sector
    ---------------------------------------------------------
        1  |  0:00.00 |  6:36.17 |         0    |    29716
        2  |  6:36.17 |  3:59.20 |     29717    |    47661
        3  | 10:35.37 |  3:59.08 |     47662    |    65594
        4  | 14:34.45 |  5:37.50 |     65595    |    90919
        5  | 20:12.20 |  5:31.30 |     90920    |   115774
        6  | 25:43.50 |  3:39.72 |    115775    |   132271
        7  | 29:23.47 |  4:09.15 |    132272    |   150961
        8  | 33:32.62 |  6:26.73 |    150962    |   179984
        9  | 39:59.60 |  4:23.07 |    179985    |   199716
       10  | 44:22.67 |  4:41.23 |    199717    |   220814
       11  | 49:04.15 |  5:44.22 |    220815    |   246636
       12  | 54:48.37 |  3:26.38 |    246637    |   262124

Range status and errors

Selected range

     Filename I:\Раздача музыки Torrents\Collins, Edwyn\Edwyn Collins - razdacha\Gorgeous George (1994)\Edwyn Collins - Gorgeous George.wav

     Peak level 95.9 %
     Range quality 99.9 %
     Test CRC 06F5D77C
     Copy CRC 06F5D77C
     Copy OK

No errors occurred

AccurateRip summary

Track  1  accurately ripped (confidence 50)  [D18E54F4]
Track  2  accurately ripped (confidence 51)  [7B653DF9]
Track  3  accurately ripped (confidence 50)  [8B41D7ED]
Track  4  accurately ripped (confidence 50)  [3D3E33CE]
Track  5  accurately ripped (confidence 49)  [64A449F4]
Track  6  accurately ripped (confidence 48)  [1504C5A3]
Track  7  accurately ripped (confidence 50)  [8D11A72A]
Track  8  accurately ripped (confidence 48)  [1D9C904F]
Track  9  accurately ripped (confidence 49)  [0FB1E297]
Track 10  accurately ripped (confidence 47)  [F384D943]
Track 11  accurately ripped (confidence 49)  [3FAFA089]
Track 12  accurately ripped (confidence 48)  [AC140B2A]

All tracks accurately ripped

End of status report
Код:
Код:
-----------------------

DON'T MODIFY THIS FILE

-----------------------

PERFORMER: auCDtect Task Manager, ver. 1.6.0 RC1 build 1.6.0.1
Copyright (c) 2008-2010 y-soft. All rights reserved
http:/y-soft.org

ANALYZER: auCDtect: CD records authenticity detector, version 0.8.2
Copyright (c) 2004 Oleg Berngardt. All rights reserved.
Copyright (c) 2004 Alexander Djourik. All rights reserved.

FILE: Edwyn Collins - Gorgeous George.flac
  Size: 345397808 Hash: 8F894DC854DA35EDE5C05F0112BD2225 Accuracy: -m0
  Conclusion: CDDA 100%
  Signature: F12EACF3298C7F2BF774A978239258FF260C661E

Правила, инструкции, FAQ!!!
Торрент  Добавлен [16 мар 2014, 00:55] Скачать торрент Магнет ссылка
Скачать торрент
[ Размер 16.6 КБ / Просмотров 112 ]

Статус  
 
Размер  387.49 МБ
Приватный: Нет (DHT включён)
.torrent скачан  5
 


     Отправить личное сообщение
   
Страница 1 из 1
Показать сообщения за:  Поле сортировки  
Начать новую тему Ответить на тему


Сейчас этот форум просматривают: нет зарегистрированных пользователей и гости: 0


Вы не можете начинать темы
Вы не можете отвечать на сообщения
Вы не можете редактировать свои сообщения
Вы не можете удалять свои сообщения
Вы не можете добавлять вложения

Перейти:  
cron
cron