Начать новую тему Ответить на тему
Статистика раздачи
Размер: 453.29 МБ | Добавлен: 16 мар 2014, 00:54 | Скачали: 1
Сидеров: 1  [0 байт/сек]    Личеров: 0  [0 байт/сек]
Пред. тема | След. тема 

Автор
Сообщение

СообщениеДобавлено: 16 мар 2014, 00:54 

Ответить с цитатой 

Editors - The Weight Of Your Love (2013)

Год: 2013
Жанр: Alternative Rock, Indie Rock, Post-Punk
Лейбл: Pias America
Каталог #: B00CZ7AKUQ
Продолжительность: 01:09:15
Кодек: FLAC
Тип рипа: tracks + .cue
Битрейт: Lossless
Треклист:
CD1
01. The Weight [04:32]
02. Sugar [04:16]
03. A Ton Of Love [03:56]
04. What Is This Thing Called Love [04:12]
05. Honesty [04:49]
06. Nothing [05:15]
07. Formaldehyde [03:50]
08. Hyena [03:39]
09. Two Hearted Spider [04:30]
10. The Phone Book [04:31]
11. Bird Of Prey [04:46]

Продолжительность: 00:48:20
CD2 - Bonus
01. The Sting [04:08]
02. Get Low [03:30]
03. Comrade Spill My Blood [03:59]
04. Hyena (Acoustic Version) [03:44]
05. Nothing (Acoustic Version) [05:32]

Продолжительность: 00:20:55
Код:
Код:
X Lossless Decoder version 20130602 (143.2)

XLD extraction logfile from 2013-06-28 16:06:13 +0200

Editors / The Weight Of Your Love

Used drive : YAMAHA CRW-F1E (revision 1.0g)
Media type : Pressed CD

Ripper mode             : XLD Secure Ripper
Disable audio cache     : OK for the drive with a cache less than 1375KiB
Make use of C2 pointers : NO
Read offset correction  : 733
Max retry count         : 100
Gap status              : Analyzed, Appended

TOC of the extracted CD
     Track |   Start  |  Length  | Start sector | End sector
    ---------------------------------------------------------
        1  | 00:00:00 | 04:32:33 |         0    |    20432
        2  | 04:32:33 | 04:16:64 |     20433    |    39696
        3  | 08:49:22 | 03:58:14 |     39697    |    57560
        4  | 12:47:36 | 04:12:25 |     57561    |    76485
        5  | 16:59:61 | 04:49:05 |     76486    |    98165
        6  | 21:48:66 | 05:15:30 |     98166    |   121820
        7  | 27:04:21 | 03:50:56 |    121821    |   139126
        8  | 30:55:02 | 03:39:24 |    139127    |   155575
        9  | 34:34:26 | 04:30:72 |    155576    |   175897
       10  | 39:05:23 | 04:31:09 |    175898    |   196231
       11  | 43:36:32 | 04:46:19 |    196232    |   217700

AccurateRip Summary
    Disc not found in AccurateRip DB.

All Tracks
    Album gain               : -9.01 dB
    Peak                     : 0.983856
    Statistics
        Read error                           : 0
        Jitter error (maybe fixed)           : 0
        Retry sector count                   : 0
        Damaged sector count                 : 0

Track 01
    Filename : /Volumes/HD 2/Editors -2013- The Weight Of Your Love (FLAC)/CD1/01 - Editors - 2013 - The Weight.flac
    Pre-gap length : 00:02:00

    Track gain               : -8.69 dB
    Peak                     : 0.973694
    CRC32 hash (test run)    : 2BE82010
    CRC32 hash               : 2BE82010
    CRC32 hash (skip zero)   : B2679F27
    AccurateRip v1 signature : 9F21E0F8
    AccurateRip v2 signature : 037AE003
        ->Track not present in AccurateRip database.
    Statistics
        Read error                           : 0
        Jitter error (maybe fixed)           : 0
        Retry sector count                   : 0
        Damaged sector count                 : 0

Track 02
    Filename : /Volumes/HD 2/Editors -2013- The Weight Of Your Love (FLAC)/CD1/02 - Editors - 2013 - Sugar.flac

    Track gain               : -9.72 dB
    Peak                     : 0.976624
    CRC32 hash (test run)    : C29BCAAA
    CRC32 hash               : C29BCAAA
    CRC32 hash (skip zero)   : A8DD4D43
    AccurateRip v1 signature : 7EB73C18
    AccurateRip v2 signature : 40CA26ED
        ->Track not present in AccurateRip database.
    Statistics
        Read error                           : 0
        Jitter error (maybe fixed)           : 0
        Retry sector count                   : 0
        Damaged sector count                 : 0

Track 03
    Filename : /Volumes/HD 2/Editors -2013- The Weight Of Your Love (FLAC)/CD1/03 - Editors - 2013 - A Ton Of Love.flac

    Track gain               : -9.76 dB
    Peak                     : 0.981934
    CRC32 hash (test run)    : 06BF0A75
    CRC32 hash               : 06BF0A75
    CRC32 hash (skip zero)   : AD658293
    AccurateRip v1 signature : D4E7FFDB
    AccurateRip v2 signature : D1F11552
        ->Track not present in AccurateRip database.
    Statistics
        Read error                           : 0
        Jitter error (maybe fixed)           : 0
        Retry sector count                   : 0
        Damaged sector count                 : 0

Track 04
    Filename : /Volumes/HD 2/Editors -2013- The Weight Of Your Love (FLAC)/CD1/04 - Editors - 2013 - What Is This Thing Called Love.flac
    Pre-gap length : 00:01:63

    Track gain               : -8.87 dB
    Peak                     : 0.972687
    CRC32 hash (test run)    : 78FEBA6A
    CRC32 hash               : 78FEBA6A
    CRC32 hash (skip zero)   : 6DDB2A4E
    AccurateRip v1 signature : C41C8C73
    AccurateRip v2 signature : 87C256F7
        ->Track not present in AccurateRip database.
    Statistics
        Read error                           : 0
        Jitter error (maybe fixed)           : 0
        Retry sector count                   : 0
        Damaged sector count                 : 0

Track 05
    Filename : /Volumes/HD 2/Editors -2013- The Weight Of Your Love (FLAC)/CD1/05 - Editors - 2013 - Honesty.flac

    Track gain               : -9.24 dB
    Peak                     : 0.974182
    CRC32 hash (test run)    : 7F2C2AF2
    CRC32 hash               : 7F2C2AF2
    CRC32 hash (skip zero)   : 27D7A2DC
    AccurateRip v1 signature : 3BE056A1
    AccurateRip v2 signature : F3A177E5
        ->Track not present in AccurateRip database.
    Statistics
        Read error                           : 0
        Jitter error (maybe fixed)           : 0
        Retry sector count                   : 0
        Damaged sector count                 : 0

Track 06
    Filename : /Volumes/HD 2/Editors -2013- The Weight Of Your Love (FLAC)/CD1/06 - Editors - 2013 - Nothing.flac

    Track gain               : -6.60 dB
    Peak                     : 0.957611
    CRC32 hash (test run)    : 75FF47F8
    CRC32 hash               : 75FF47F8
    CRC32 hash (skip zero)   : E1CB9CA4
    AccurateRip v1 signature : FEDC8109
    AccurateRip v2 signature : D422D270
        ->Track not present in AccurateRip database.
    Statistics
        Read error                           : 0
        Jitter error (maybe fixed)           : 0
        Retry sector count                   : 0
        Damaged sector count                 : 0

Track 07
    Filename : /Volumes/HD 2/Editors -2013- The Weight Of Your Love (FLAC)/CD1/07 - Editors - 2013 - Formaldehyde.flac

    Track gain               : -8.99 dB
    Peak                     : 0.983856
    CRC32 hash (test run)    : 721C3A33
    CRC32 hash               : 721C3A33
    CRC32 hash (skip zero)   : 490E29A6
    AccurateRip v1 signature : 9BDDB056
    AccurateRip v2 signature : EC20D1F6
        ->Track not present in AccurateRip database.
    Statistics
        Read error                           : 0
        Jitter error (maybe fixed)           : 0
        Retry sector count                   : 0
        Damaged sector count                 : 0

Track 08
    Filename : /Volumes/HD 2/Editors -2013- The Weight Of Your Love (FLAC)/CD1/08 - Editors - 2013 - Hyena.flac

    Track gain               : -9.09 dB
    Peak                     : 0.977844
    CRC32 hash (test run)    : 890800BC
    CRC32 hash               : 890800BC
    CRC32 hash (skip zero)   : 0C6A2998
    AccurateRip v1 signature : 8ED13404
    AccurateRip v2 signature : 557484BE
        ->Track not present in AccurateRip database.
    Statistics
        Read error                           : 0
        Jitter error (maybe fixed)           : 0
        Retry sector count                   : 0
        Damaged sector count                 : 0

Track 09
    Filename : /Volumes/HD 2/Editors -2013- The Weight Of Your Love (FLAC)/CD1/09 - Editors - 2013 - Two Hearted Spider.flac

    Track gain               : -8.87 dB
    Peak                     : 0.982635
    CRC32 hash (test run)    : 0898A6CF
    CRC32 hash               : 0898A6CF
    CRC32 hash (skip zero)   : C57471BE
    AccurateRip v1 signature : 27CB5DE5
    AccurateRip v2 signature : 249CB729
        ->Track not present in AccurateRip database.
    Statistics
        Read error                           : 0
        Jitter error (maybe fixed)           : 0
        Retry sector count                   : 0
        Damaged sector count                 : 0

Track 10
    Filename : /Volumes/HD 2/Editors -2013- The Weight Of Your Love (FLAC)/CD1/10 - Editors - 2013 - The Phone Book.flac

    Track gain               : -6.49 dB
    Peak                     : 0.965729
    CRC32 hash (test run)    : 4D0FD7CB
    CRC32 hash               : 4D0FD7CB
    CRC32 hash (skip zero)   : 0A79BD53
    AccurateRip v1 signature : 30970D18
    AccurateRip v2 signature : 878216FA
        ->Track not present in AccurateRip database.
    Statistics
        Read error                           : 0
        Jitter error (maybe fixed)           : 0
        Retry sector count                   : 0
        Damaged sector count                 : 0

Track 11
    Filename : /Volumes/HD 2/Editors -2013- The Weight Of Your Love (FLAC)/CD1/11 - Editors - 2013 - Bird Of Prey.flac

    Track gain               : -7.39 dB
    Peak                     : 0.973663
    CRC32 hash (test run)    : 5D875303
    CRC32 hash               : 5D875303
    CRC32 hash (skip zero)   : ED18D4F4
    AccurateRip v1 signature : 3D56F84A
    AccurateRip v2 signature : 7D99A458
        ->Track not present in AccurateRip database.
    Statistics
        Read error                           : 0
        Jitter error (maybe fixed)           : 0
        Retry sector count                   : 0
        Damaged sector count                 : 0

No errors occurred

End of status report

Код:
Код:
-----------------------

DON'T MODIFY THIS FILE

-----------------------

PERFORMER: auCDtect Task Manager, ver. 1.6.0 RC1 build 1.6.0.1
Copyright (c) 2008-2010 y-soft. All rights reserved
http:/y-soft.org

ANALYZER: auCDtect: CD records authenticity detector, version 0.8.2
Copyright (c) 2004 Oleg Berngardt. All rights reserved.
Copyright (c) 2004 Alexander Djourik. All rights reserved.

FILE: 06 - Editors - 2013 - Nothing.flac
  Size: 32238996 Hash: C936BBCAA487892FCA100D929ADE0E9F Accuracy: -m0
  Conclusion: CDDA 100%
  Signature: 341A63D8192E5AE09F2E60F92EFE9335028AA145
FILE: 05 - Editors - 2013 - Honesty.flac
  Size: 34914189 Hash: 1EC1C903AB0C01AAA5DFD313BBE32B0A Accuracy: -m0
  Conclusion: CDDA 100%
  Signature: 1A8AB4ADF7C52B763A2F2AF502403B272C4B115E
FILE: 04 - Editors - 2013 - What Is This Thing Called Love.flac
  Size: 27562508 Hash: 9BAE52497607138774859926D2FC9CB6 Accuracy: -m0
  Conclusion: CDDA 99%
  Signature: 54422BFDC9EB939EE36ECE98D6B1749C812C864E
FILE: 03 - Editors - 2013 - A Ton Of Love.flac
  Size: 30338660 Hash: F8BE43357168BC9EF87844D96891C90C Accuracy: -m0
  Conclusion: CDDA 100%
  Signature: 6FFFF46A3437CD72E460A25F5A4AA0E674443AF1
FILE: 02 - Editors - 2013 - Sugar.flac
  Size: 32684927 Hash: CF73E935D447D00D52319CA753483400 Accuracy: -m0
  Conclusion: CDDA 100%
  Signature: 97D9810061F64B3D0806B8C6618F2FAA7AC13746
FILE: 01 - Editors - 2013 - The Weight.flac
  Size: 29422515 Hash: 1EC5F35619AC820C29899C8A3CD13A1C Accuracy: -m0
  Conclusion: CDDA 100%
  Signature: DD632497C77EEDAAFEC3A6A6937569FFB884D0D3
FILE: 11 - Editors - 2013 - Bird Of Prey.flac
  Size: 34439265 Hash: EF3461B6936D9337C76AEBBDBDD12A12 Accuracy: -m0
  Conclusion: CDDA 99%
  Signature: 0978A6331CE32B600DDB24D1B702D3C885513A1E
FILE: 10 - Editors - 2013 - The Phone Book.flac
  Size: 27210837 Hash: 379B0329A1D0B9A42608F71A6B4AFD1F Accuracy: -m0
  Conclusion: CDDA 100%
  Signature: FD1C6A75351BD91687D54DE6F5F19238CF328D52
FILE: 09 - Editors - 2013 - Two Hearted Spider.flac
  Size: 29982064 Hash: DE45422A75CD7BE9E7600B43F2228D18 Accuracy: -m0
  Conclusion: CDDA 100%
  Signature: 28CB0CA920E1DD27BBA1C273ADE25517A4A7AF33
FILE: 08 - Editors - 2013 - Hyena.flac
  Size: 26248985 Hash: 561FFBA0C3DC101F9576D00756B78CD0 Accuracy: -m0
  Conclusion: CDDA 100%
  Signature: 8905867894453ABE8035B3C7CE28235BEC77086B
FILE: 07 - Editors - 2013 - Formaldehyde.flac
  Size: 27386797 Hash: CA1E386F1890598C8648C1F3475CBDCF Accuracy: -m0
  Conclusion: CDDA 100%
  Signature: FD08FA66CCC425C0D2AC1E9FC2D163A1B3CA6D75

Код:
Код:
TITLE "The Weight Of Your Love"
PERFORMER "Editors"
REM GENRE "Indie Rock"
REM DATE "2013"
REM DISCNUMBER 1
REM TOTALDISCS 2
REM DISCID 8B0B560B
REM REPLAYGAIN_ALBUM_GAIN -9.01 dB
REM REPLAYGAIN_ALBUM_PEAK 0.983856
FILE "01 - Editors - 2013 - The Weight.flac" WAVE
  TRACK 01 AUDIO
    TITLE "The Weight"
    PERFORMER "Editors"
    SONGWRITER "Tom Smith / Russell Leetch / Ed Lay / Justin Lockey / Elliott Williams"
    ISRC GBENL1300889
    REM REPLAYGAIN_TRACK_GAIN -8.69 dB
    REM REPLAYGAIN_TRACK_PEAK 0.973694
    INDEX 01 00:00:00
FILE "02 - Editors - 2013 - Sugar.flac" WAVE
  TRACK 02 AUDIO
    TITLE "Sugar"
    PERFORMER "Editors"
    SONGWRITER "Tom Smith / Russell Leetch / Ed Lay / Justin Lockey / Elliott Williams"
    ISRC GBENL1300890
    REM REPLAYGAIN_TRACK_GAIN -9.72 dB
    REM REPLAYGAIN_TRACK_PEAK 0.976624
    INDEX 01 00:00:00
FILE "03 - Editors - 2013 - A Ton Of Love.flac" WAVE
  TRACK 03 AUDIO
    TITLE "A Ton Of Love"
    PERFORMER "Editors"
    SONGWRITER "Tom Smith / Russell Leetch / Ed Lay / Justin Lockey / Elliott Williams"
    ISRC GBENL1300891
    REM REPLAYGAIN_TRACK_GAIN -9.76 dB
    REM REPLAYGAIN_TRACK_PEAK 0.981934
    INDEX 01 00:00:00
  TRACK 04 AUDIO
    TITLE "What Is This Thing Called Love"
    PERFORMER "Editors"
    SONGWRITER "Tom Smith / Russell Leetch / Ed Lay / Justin Lockey / Elliott Williams"
    ISRC GBENL1300892
    REM REPLAYGAIN_TRACK_GAIN -8.87 dB
    REM REPLAYGAIN_TRACK_PEAK 0.972687
    INDEX 00 03:56:26
FILE "04 - Editors - 2013 - What Is This Thing Called Love.flac" WAVE
    INDEX 01 00:00:00
FILE "05 - Editors - 2013 - Honesty.flac" WAVE
  TRACK 05 AUDIO
    TITLE "Honesty"
    PERFORMER "Editors"
    SONGWRITER "Tom Smith / Russell Leetch / Ed Lay / Justin Lockey / Elliott Williams"
    ISRC GBENL1300893
    REM REPLAYGAIN_TRACK_GAIN -9.24 dB
    REM REPLAYGAIN_TRACK_PEAK 0.974182
    INDEX 01 00:00:00
FILE "06 - Editors - 2013 - Nothing.flac" WAVE
  TRACK 06 AUDIO
    TITLE "Nothing"
    PERFORMER "Editors"
    SONGWRITER "Tom Smith / Russell Leetch / Ed Lay / Justin Lockey / Elliott Williams"
    ISRC GBENL1300894
    REM REPLAYGAIN_TRACK_GAIN -6.60 dB
    REM REPLAYGAIN_TRACK_PEAK 0.957611
    INDEX 01 00:00:00
FILE "07 - Editors - 2013 - Formaldehyde.flac" WAVE
  TRACK 07 AUDIO
    TITLE "Formaldehyde"
    PERFORMER "Editors"
    SONGWRITER "Tom Smith / Russell Leetch / Ed Lay / Justin Lockey / Elliott Williams"
    ISRC GBENL1300895
    REM REPLAYGAIN_TRACK_GAIN -8.99 dB
    REM REPLAYGAIN_TRACK_PEAK 0.983856
    INDEX 01 00:00:00
FILE "08 - Editors - 2013 - Hyena.flac" WAVE
  TRACK 08 AUDIO
    TITLE "Hyena"
    PERFORMER "Editors"
    SONGWRITER "Tom Smith / Russell Leetch / Ed Lay / Justin Lockey / Elliott Williams"
    ISRC GBENL1300896
    REM REPLAYGAIN_TRACK_GAIN -9.09 dB
    REM REPLAYGAIN_TRACK_PEAK 0.977844
    INDEX 01 00:00:00
FILE "09 - Editors - 2013 - Two Hearted Spider.flac" WAVE
  TRACK 09 AUDIO
    TITLE "Two Hearted Spider"
    PERFORMER "Editors"
    SONGWRITER "Tom Smith / Russell Leetch / Ed Lay / Justin Lockey / Elliott Williams"
    ISRC GBENL1300897
    REM REPLAYGAIN_TRACK_GAIN -8.87 dB
    REM REPLAYGAIN_TRACK_PEAK 0.982635
    INDEX 01 00:00:00
FILE "10 - Editors - 2013 - The Phone Book.flac" WAVE
  TRACK 10 AUDIO
    TITLE "The Phone Book"
    PERFORMER "Editors"
    SONGWRITER "Tom Smith / Russell Leetch / Ed Lay / Justin Lockey / Elliott Williams"
    ISRC GBENL1300898
    REM REPLAYGAIN_TRACK_GAIN -6.49 dB
    REM REPLAYGAIN_TRACK_PEAK 0.965729
    INDEX 01 00:00:00
FILE "11 - Editors - 2013 - Bird Of Prey.flac" WAVE
  TRACK 11 AUDIO
    TITLE "Bird Of Prey"
    PERFORMER "Editors"
    SONGWRITER "Tom Smith / Russell Leetch / Ed Lay / Justin Lockey / Elliott Williams"
    ISRC GBENL1300899
    REM REPLAYGAIN_TRACK_GAIN -7.39 dB
    REM REPLAYGAIN_TRACK_PEAK 0.973663
    INDEX 01 00:00:00

Код:
Код:
[CUETools log; Date: 02.07.2013 22:14:33; Version: 2.1.4]
[CTDB TOCID: 6ThGcxEYeqTWaaHOwGzJsP9ooS4-] found.
Track | CTDB Status
  1   | (25/25) Accurately ripped
  2   | (25/25) Accurately ripped
  3   | (25/25) Accurately ripped
  4   | (25/25) Accurately ripped
  5   | (25/25) Accurately ripped
  6   | (25/25) Accurately ripped
  7   | (25/25) Accurately ripped
  8   | (25/25) Accurately ripped
  9   | (25/25) Accurately ripped
 10   | (25/25) Accurately ripped
 11   | (25/25) Accurately ripped
[AccurateRip ID: 0013d10a-00abc6af-8b0b560b] disk not present in database.

Track Peak [ CRC32  ] [W/O NULL]
 --   98,3 [88C73B5A] [4093095A]
 01   97,3 [2BE82010] [B2679F27]
 02   97,6 [C29BCAAA] [A8DD4D43]
 03   98,1 [06BF0A75] [AD658293]
 04   97,2 [78FEBA6A] [6DDB2A4E]
 05   97,4 [7F2C2AF2] [27D7A2DC]
 06   95,7 [75FF47F8] [E1CB9CA4]
 07   98,3 [721C3A33] [490E29A6]
 08   97,7 [890800BC] [0C6A2998]
 09   98,2 [0898A6CF] [C57471BE]
 10   96,5 [4D0FD7CB] [0A79BD53]
 11   97,3 [5D875303] [ED18D4F4]

Код:
Код:
X Lossless Decoder version 20130602 (143.2)

XLD extraction logfile from 2013-06-28 16:20:28 +0200

Editors / The Weight Of Your Love

Used drive : YAMAHA CRW-F1E (revision 1.0g)
Media type : Pressed CD

Ripper mode             : XLD Secure Ripper
Disable audio cache     : OK for the drive with a cache less than 1375KiB
Make use of C2 pointers : NO
Read offset correction  : 733
Max retry count         : 100
Gap status              : Analyzed, Appended

TOC of the extracted CD
     Track |   Start  |  Length  | Start sector | End sector
    ---------------------------------------------------------
        1  | 00:00:00 | 04:08:56 |         0    |    18655
        2  | 04:08:56 | 03:30:17 |     18656    |    34422
        3  | 07:38:73 | 03:59:43 |     34423    |    52390
        4  | 11:38:41 | 03:44:64 |     52391    |    69254
        5  | 15:23:30 | 05:32:27 |     69255    |    94181

AccurateRip Summary
    Disc not found in AccurateRip DB.

All Tracks
    Album gain               : -7.46 dB
    Peak                     : 0.978363
    Statistics
        Read error                           : 0
        Jitter error (maybe fixed)           : 0
        Retry sector count                   : 0
        Damaged sector count                 : 0

Track 01
    Filename : /Volumes/HD 2/Editors -2013- The Weight Of Your Love (FLAC)/CD2/01 - Editors - 2013 - The Sting.flac
    Pre-gap length : 00:02:00

    Track gain               : -7.68 dB
    Peak                     : 0.971710
    CRC32 hash (test run)    : 2B7F7DF2
    CRC32 hash               : 2B7F7DF2
    CRC32 hash (skip zero)   : FEDD32F0
    AccurateRip v1 signature : C869976B
    AccurateRip v2 signature : 83AB72FB
        ->Track not present in AccurateRip database.
    Statistics
        Read error                           : 0
        Jitter error (maybe fixed)           : 0
        Retry sector count                   : 0
        Damaged sector count                 : 0

Track 02
    Filename : /Volumes/HD 2/Editors -2013- The Weight Of Your Love (FLAC)/CD2/02 - Editors - 2013 - Get Low.flac

    Track gain               : -6.69 dB
    Peak                     : 0.978363
    CRC32 hash (test run)    : E5F22E9A
    CRC32 hash               : E5F22E9A
    CRC32 hash (skip zero)   : 6FD8F2DF
    AccurateRip v1 signature : 613C90DF
    AccurateRip v2 signature : 8B67978A
        ->Track not present in AccurateRip database.
    Statistics
        Read error                           : 0
        Jitter error (maybe fixed)           : 0
        Retry sector count                   : 0
        Damaged sector count                 : 0

Track 03
    Filename : /Volumes/HD 2/Editors -2013- The Weight Of Your Love (FLAC)/CD2/03 - Editors - 2013 - Comrade Spill My Blood.flac

    Track gain               : -8.31 dB
    Peak                     : 0.946930
    CRC32 hash (test run)    : 18B09F11
    CRC32 hash               : 18B09F11
    CRC32 hash (skip zero)   : 5A095D25
    AccurateRip v1 signature : A1B7E818
    AccurateRip v2 signature : B2AD7E32
        ->Track not present in AccurateRip database.
    Statistics
        Read error                           : 0
        Jitter error (maybe fixed)           : 0
        Retry sector count                   : 0
        Damaged sector count                 : 0

Track 04
    Filename : /Volumes/HD 2/Editors -2013- The Weight Of Your Love (FLAC)/CD2/04 - Editors - 2013 - Hyena (Acoustic Version).flac

    Track gain               : -6.46 dB
    Peak                     : 0.939667
    CRC32 hash (test run)    : FBF7EE2C
    CRC32 hash               : FBF7EE2C
    CRC32 hash (skip zero)   : 5E950CFE
    AccurateRip v1 signature : A4550914
    AccurateRip v2 signature : 3F24EDA1
        ->Track not present in AccurateRip database.
    Statistics
        Read error                           : 0
        Jitter error (maybe fixed)           : 0
        Retry sector count                   : 0
        Damaged sector count                 : 0

Track 05
    Filename : /Volumes/HD 2/Editors -2013- The Weight Of Your Love (FLAC)/CD2/05 - Editors - 2013 - Nothing (Acoustic Version).flac

    Track gain               : -7.11 dB
    Peak                     : 0.939301
    CRC32 hash (test run)    : 4B4B04BD
    CRC32 hash               : 4B4B04BD
    CRC32 hash (skip zero)   : C4F33FBF
    AccurateRip v1 signature : 38C03A2D
    AccurateRip v2 signature : 50D0832E
        ->Track not present in AccurateRip database.
    Statistics
        Read error                           : 0
        Jitter error (maybe fixed)           : 0
        Retry sector count                   : 0
        Damaged sector count                 : 0

No errors occurred

End of status report

Код:
Код:
-----------------------

DON'T MODIFY THIS FILE

-----------------------

PERFORMER: auCDtect Task Manager, ver. 1.6.0 RC1 build 1.6.0.1
Copyright (c) 2008-2010 y-soft. All rights reserved
http:/y-soft.org

ANALYZER: auCDtect: CD records authenticity detector, version 0.8.2
Copyright (c) 2004 Oleg Berngardt. All rights reserved.
Copyright (c) 2004 Alexander Djourik. All rights reserved.

FILE: 03 - Editors - 2013 - Comrade Spill My Blood.flac
  Size: 26748096 Hash: F8495B568866B3F8B57DC9DB3D42EE5C Accuracy: -m0
  Conclusion: CDDA 100%
  Signature: 3F626B03BB87431ACAA65D2D068A7A71C2C7E94C
FILE: 02 - Editors - 2013 - Get Low.flac
  Size: 23872741 Hash: F31F44580EE295F2B56F288AA8F201D7 Accuracy: -m0
  Conclusion: CDDA 100%
  Signature: 1AA4FFE4A725F89662253C83DF554184448717EF
FILE: 01 - Editors - 2013 - The Sting.flac
  Size: 30419823 Hash: 055FFCA1EB52169BF2377069FF3B82B4 Accuracy: -m0
  Conclusion: CDDA 100%
  Signature: 422AF0E08D597672EB82DA12D88AC29FF557C0A5
FILE: 05 - Editors - 2013 - Nothing (Acoustic Version).flac
  Size: 37571847 Hash: BA9C825773138E455D3A2BD95EA2AB7F Accuracy: -m0
  Conclusion: CDDA 100%
  Signature: 42E9495192C60741D78586881E2097C234E72F99
FILE: 04 - Editors - 2013 - Hyena (Acoustic Version).flac
  Size: 24191132 Hash: AF7A94E36D47BF096CD174507AAF5BB0 Accuracy: -m0
  Conclusion: CDDA 99%
  Signature: CA4ABF9E143BC9E33131C61C2E4BD61D6AF59540

Код:
Код:
TITLE "The Weight Of Your Love"
PERFORMER "Editors"
REM GENRE "Indie Rock"
REM DATE "2013"
REM DISCNUMBER 2
REM TOTALDISCS 2
REM DISCID 2A04E705
REM REPLAYGAIN_ALBUM_GAIN -7.46 dB
REM REPLAYGAIN_ALBUM_PEAK 0.978363
FILE "01 - Editors - 2013 - The Sting.flac" WAVE
  TRACK 01 AUDIO
    TITLE "The Sting"
    PERFORMER "Editors"
    ISRC GBENL1300902
    REM REPLAYGAIN_TRACK_GAIN -7.68 dB
    REM REPLAYGAIN_TRACK_PEAK 0.971710
    INDEX 01 00:00:00
FILE "02 - Editors - 2013 - Get Low.flac" WAVE
  TRACK 02 AUDIO
    TITLE "Get Low"
    PERFORMER "Editors"
    ISRC GBENL1300901
    REM REPLAYGAIN_TRACK_GAIN -6.69 dB
    REM REPLAYGAIN_TRACK_PEAK 0.978363
    INDEX 01 00:00:00
FILE "03 - Editors - 2013 - Comrade Spill My Blood.flac" WAVE
  TRACK 03 AUDIO
    TITLE "Comrade Spill My Blood"
    PERFORMER "Editors"
    ISRC GBENL1300900
    REM REPLAYGAIN_TRACK_GAIN -8.31 dB
    REM REPLAYGAIN_TRACK_PEAK 0.946930
    INDEX 01 00:00:00
FILE "04 - Editors - 2013 - Hyena (Acoustic Version).flac" WAVE
  TRACK 04 AUDIO
    TITLE "Hyena (Acoustic Version)"
    PERFORMER "Editors"
    ISRC GBENL1300906
    REM REPLAYGAIN_TRACK_GAIN -6.46 dB
    REM REPLAYGAIN_TRACK_PEAK 0.939667
    INDEX 01 00:00:00
FILE "05 - Editors - 2013 - Nothing (Acoustic Version).flac" WAVE
  TRACK 05 AUDIO
    TITLE "Nothing (Acoustic Version)"
    PERFORMER "Editors"
    ISRC GBENL1300903
    REM REPLAYGAIN_TRACK_GAIN -7.11 dB
    REM REPLAYGAIN_TRACK_PEAK 0.939301
    INDEX 01 00:00:00

Код:
Код:
[CUETools log; Date: 02.07.2013 22:15:50; Version: 2.1.4]
[CTDB TOCID: RMSsM5dZIWw4gTk7TfOIeZD6qzw-] found.
Track | CTDB Status
  1   | (22/23) Accurately ripped
  2   | (23/23) Accurately ripped
  3   | (23/23) Accurately ripped
  4   | (23/23) Accurately ripped
  5   | (23/23) Accurately ripped
[AccurateRip ID: 00041a6b-00133fc9-2a04e705] disk not present in database.

Track Peak [ CRC32  ] [W/O NULL]
 --   97,8 [E2127112] [C8F80952]
 01   97,1 [2B7F7DF2] [FEDD32F0]
 02   97,8 [E5F22E9A] [6FD8F2DF]
 03   94,6 [18B09F11] [5A095D25]
 04   93,9 [FBF7EE2C] [5E950CFE]
 05   93,9 [4B4B04BD] [C4F33FBF]

Правила, инструкции, FAQ!!!
Торрент  Добавлен [16 мар 2014, 00:54] Скачать торрент Магнет ссылка
Скачать торрент
[ Размер 20.08 КБ / Просмотров 75 ]

Статус  
 
Размер  453.29 МБ
Приватный: Нет (DHT включён)
.torrent скачан  1
 


     Отправить личное сообщение
   
Страница 1 из 1
Показать сообщения за:  Поле сортировки  
Начать новую тему Ответить на тему


Сейчас этот форум просматривают: нет зарегистрированных пользователей и гости: 0


Вы не можете начинать темы
Вы не можете отвечать на сообщения
Вы не можете редактировать свои сообщения
Вы не можете удалять свои сообщения
Вы не можете добавлять вложения

Перейти:  
cron