Начать новую тему Ответить на тему
Статистика раздачи
Размер: 465.01 МБ | Добавлен: 23 май 2020, 06:59 | Скачали: 0
Сидеров: 0  [0 байт/сек]    Личеров: 0  [0 байт/сек]
Пред. тема | След. тема 

Автор
Сообщение

СообщениеДобавлено: 23 май 2020, 06:59 

Ответить с цитатой 


Paul Mauriat – Love Sounds Journey (1976) & Bonus Tracks
Жанр: Easy Listening
Носитель: SACD
Страна-производитель диска: Austria
Год издания диска: 2020
Издатель (лейбл): Vocalion
Номер по каталогу: CDSML 8573
Страна: France
Аудио кодек: FLAC (*.flac)
Тип рипа: tracks+.cue
Битрейт аудио: lossless
Продолжительность: 70.56:91
Источник: snakesharmer
Дополнительная информация: CD-слой с гибридного SACD

Love Sounds Journey

01. 36 Nord 140 Est [0:04:30.33]
02. Poupee de soie [0:04:29.31]
03. Oh La La Osaka [0:04:41.74]
04. La baie des lumieres [0:03:42.63]
05. Sea Shell Shore [0:05:19.22]
06. Let There Be Light [0:03:58.65]
07. Loiseau rare [0:06:09.43]
08. Boules de neige [0:02:10.71]
09. Memories of Yesterday [0:02:18.12]
10. L etoile de mer [0:03:05.40]
11. Demoiselle tango [0:04:52.21]
Bonus tracks
12. Love is Still Blue disco version 1st [0:03:16.41]
13. Penelope disco version [0:04:12.49]
14. I Will Follow Him Chariot [0:02:48.72]
15. La reine de Saba disco version [0:03:17.52]
16. Theres a Kind of Hush [0:03:04.58]
17. Love is Still Blue disco mix 3rd [0:03:12.24]
18. Love is Still Blue disco longest mix 5th [0:05:43.70]
Код:
Exact Audio Copy V1.3 from 2. September 2016
EAC extraction logfile from 29. March 2020, 10:12
Paul Mauriat  / Love Sounds Journey & BonusTracks
Used drive  : PLEXTOR DVDR   PX-L890SA   Adapter: 1  ID: 0
Read mode               : Secure
Utilize accurate stream : Yes
Defeat audio cache      : Yes
Make use of C2 pointers : No
Read offset correction                      : 6
Overread into Lead-In and Lead-Out          : No
Fill up missing offset samples with silence : Yes
Delete leading and trailing silent blocks   : No
Null samples used in CRC calculations       : Yes
Used interface                              : Native Win32 interface for Win NT & 2000
Gap handling                                : Appended to previous track
Used output format              : User Defined Encoder
Selected bitrate                : 1024 kBit/s
Quality                         : High
Add ID3 tag                     : No
Command line compressor         : C:\Program Files (x86)\Exact Audio Copy\Flac\flac.exe
Additional command line options : -8 -V -T "ARTIST=%artist%" -T "TITLE=%title%" -T "ALBUM=%albumtitle%" -T "DATE=%year%" -T "TRACKNUMBER=%tracknr%" -T "GENRE=%genre%" -T "PERFORMER=%albuminterpret%" -T "COMPOSER=%composer%" %haslyrics%--tag-from-file=LYRICS="%lyricsfile%"%haslyrics% -T "ALBUMARTIST=%albumartist%" -T "DISCNUMBER=%cdnumber%" -T "TOTALDISCS=%totalcds%" -T "TOTALTRACKS=%numtracks%" -T "COMMENT=%comment%" %source% -o %dest%
TOC of the extracted CD
     Track |   Start  |  Length  | Start sector | End sector
    ---------------------------------------------------------
        1  |  0:01.00 |  4:30.33 |        75    |    20357
        2  |  4:31.33 |  4:29.31 |     20358    |    40563
        3  |  9:00.64 |  4:41.74 |     40564    |    61712
        4  | 13:42.63 |  3:42.63 |     61713    |    78425
        5  | 17:25.51 |  5:19.22 |     78426    |   102372
        6  | 22:44.73 |  3:58.65 |    102373    |   120287
        7  | 26:43.63 |  6:09.43 |    120288    |   148005
        8  | 32:53.31 |  2:10.71 |    148006    |   157826
        9  | 35:04.27 |  2:18.12 |    157827    |   168188
       10  | 37:22.39 |  3:05.40 |    168189    |   182103
       11  | 40:28.04 |  4:52.21 |    182104    |   204024
       12  | 45:20.25 |  3:16.41 |    204025    |   218765
       13  | 48:36.66 |  4:12.49 |    218766    |   237714
       14  | 52:49.40 |  2:48.72 |    237715    |   250386
       15  | 55:38.37 |  3:17.52 |    250387    |   265213
       16  | 58:56.14 |  3:04.58 |    265214    |   279071
       17  | 62:00.72 |  3:12.24 |    279072    |   293495
       18  | 65:13.21 |  5:43.70 |    293496    |   319290
Track  1
     Filename H:\AUDIO\MUSIC\2020. Paul Muriat - Love Sounds Journey & BonusTracks (Vocalion CDSML 8573, Austra, SACD)\01 36 Nord 140 Est Tokyo.wav
     Pre-gap length  0:00:03.00
     Peak level 85.3 %
     Extraction speed 5.8 X
     Track quality 100.0 %
     Test CRC 4C6FDADE
     Copy CRC 4C6FDADE
     Track not present in AccurateRip database
     Copy OK
Track  2
     Filename H:\AUDIO\MUSIC\2020. Paul Muriat - Love Sounds Journey & BonusTracks (Vocalion CDSML 8573, Austra, SACD)\02 Poupee de soie Kyoto.wav
     Pre-gap length  0:00:00.42
     Peak level 91.4 %
     Extraction speed 6.5 X
     Track quality 100.0 %
     Test CRC C99D6529
     Copy CRC C99D6529
     Track not present in AccurateRip database
     Copy OK
Track  3
     Filename H:\AUDIO\MUSIC\2020. Paul Muriat - Love Sounds Journey & BonusTracks (Vocalion CDSML 8573, Austra, SACD)\03 Oh La La Osaka Osaka.wav
     Pre-gap length  0:00:00.69
     Peak level 81.0 %
     Extraction speed 7.2 X
     Track quality 100.0 %
     Test CRC C7F85305
     Copy CRC C7F85305
     Track not present in AccurateRip database
     Copy OK
Track  4
     Filename H:\AUDIO\MUSIC\2020. Paul Muriat - Love Sounds Journey & BonusTracks (Vocalion CDSML 8573, Austra, SACD)\04 La baie des lumieres  Kobe.wav
     Pre-gap length  0:00:00.21
     Peak level 74.2 %
     Extraction speed 7.4 X
     Track quality 100.0 %
     Test CRC 8748D47B
     Copy CRC 8748D47B
     Track not present in AccurateRip database
     Copy OK
Track  5
     Filename H:\AUDIO\MUSIC\2020. Paul Muriat - Love Sounds Journey & BonusTracks (Vocalion CDSML 8573, Austra, SACD)\05 Sea Shell Shore  Kochi.wav
     Pre-gap length  0:00:00.46
     Peak level 72.9 %
     Extraction speed 8.2 X
     Track quality 100.0 %
     Test CRC F7ADB589
     Copy CRC F7ADB589
     Track not present in AccurateRip database
     Copy OK
Track  6
     Filename H:\AUDIO\MUSIC\2020. Paul Muriat - Love Sounds Journey & BonusTracks (Vocalion CDSML 8573, Austra, SACD)\06 Let There Be Light  Hakata.wav
     Pre-gap length  0:00:00.46
     Peak level 88.6 %
     Extraction speed 8.4 X
     Track quality 100.0 %
     Test CRC 6B3D223B
     Copy CRC 6B3D223B
     Track not present in AccurateRip database
     Copy OK
Track  7
     Filename H:\AUDIO\MUSIC\2020. Paul Muriat - Love Sounds Journey & BonusTracks (Vocalion CDSML 8573, Austra, SACD)\07 Loiseau rare  Kurashiki.wav
     Pre-gap length  0:00:01.15
     Peak level 82.6 %
     Extraction speed 9.4 X
     Track quality 100.0 %
     Test CRC 1E682441
     Copy CRC 1E682441
     Track not present in AccurateRip database
     Copy OK
Track  8
     Filename H:\AUDIO\MUSIC\2020. Paul Muriat - Love Sounds Journey & BonusTracks (Vocalion CDSML 8573, Austra, SACD)\08 Boules de neige  Hakodate.wav
     Pre-gap length  0:00:00.21
     Peak level 81.3 %
     Extraction speed 8.3 X
     Track quality 100.0 %
     Test CRC AD1A83CE
     Copy CRC AD1A83CE
     Track not present in AccurateRip database
     Copy OK
Track  9
     Filename H:\AUDIO\MUSIC\2020. Paul Muriat - Love Sounds Journey & BonusTracks (Vocalion CDSML 8573, Austra, SACD)\09 Memories of Yesterday  Lake Mashu Sapporo.wav
     Pre-gap length  0:00:00.51
     Peak level 59.4 %
     Extraction speed 8.6 X
     Track quality 100.0 %
     Test CRC E299973B
     Copy CRC E299973B
     Track not present in AccurateRip database
     Copy OK
Track 10
     Filename H:\AUDIO\MUSIC\2020. Paul Muriat - Love Sounds Journey & BonusTracks (Vocalion CDSML 8573, Austra, SACD)\10 L etoile de mer  Sendai.wav
     Pre-gap length  0:00:01.34
     Peak level 67.6 %
     Extraction speed 9.3 X
     Track quality 100.0 %
     Test CRC 0C8F11C9
     Copy CRC 0C8F11C9
     Track not present in AccurateRip database
     Copy OK
Track 11
     Filename H:\AUDIO\MUSIC\2020. Paul Muriat - Love Sounds Journey & BonusTracks (Vocalion CDSML 8573, Austra, SACD)\11 Demoiselle tango  Kanazawa.wav
     Pre-gap length  0:00:00.58
     Peak level 62.6 %
     Extraction speed 10.3 X
     Track quality 100.0 %
     Test CRC 1917574A
     Copy CRC 1917574A
     Track not present in AccurateRip database
     Copy OK
Track 12
     Filename H:\AUDIO\MUSIC\2020. Paul Muriat - Love Sounds Journey & BonusTracks (Vocalion CDSML 8573, Austra, SACD)\12 Love is Still Blue disco version 1st.wav
     Pre-gap length  0:00:00.46
     Peak level 81.7 %
     Extraction speed 8.6 X
     Track quality 99.9 %
     Test CRC CA406991
     Copy CRC CA406991
     Track not present in AccurateRip database
     Copy OK
Track 13
     Filename H:\AUDIO\MUSIC\2020. Paul Muriat - Love Sounds Journey & BonusTracks (Vocalion CDSML 8573, Austra, SACD)\13 Penelope  disco version.wav
     Pre-gap length  0:00:01.50
     Peak level 82.8 %
     Extraction speed 9.5 X
     Track quality 99.9 %
     Test CRC 8048ED52
     Copy CRC 8048ED52
     Track not present in AccurateRip database
     Copy OK
Track 14
     Filename H:\AUDIO\MUSIC\2020. Paul Muriat - Love Sounds Journey & BonusTracks (Vocalion CDSML 8573, Austra, SACD)\14 I Will Follow Him Chariot.wav
     Pre-gap length  0:00:01.00
     Peak level 81.8 %
     Extraction speed 8.7 X
     Track quality 99.9 %
     Test CRC 934E1642
     Copy CRC 934E1642
     Track not present in AccurateRip database
     Copy OK
Track 15
     Filename H:\AUDIO\MUSIC\2020. Paul Muriat - Love Sounds Journey & BonusTracks (Vocalion CDSML 8573, Austra, SACD)\15 La reine de Saba  disco version.wav
     Pre-gap length  0:00:00.73
     Peak level 58.2 %
     Extraction speed 10.7 X
     Track quality 100.0 %
     Test CRC 360F9C93
     Copy CRC 360F9C93
     Track not present in AccurateRip database
     Copy OK
Track 16
     Filename H:\AUDIO\MUSIC\2020. Paul Muriat - Love Sounds Journey & BonusTracks (Vocalion CDSML 8573, Austra, SACD)\16 Theres a Kind of Hush.wav
     Pre-gap length  0:00:00.56
     Peak level 55.0 %
     Extraction speed 10.8 X
     Track quality 100.0 %
     Test CRC 349637BE
     Copy CRC 349637BE
     Track not present in AccurateRip database
     Copy OK
Track 17
     Filename H:\AUDIO\MUSIC\2020. Paul Muriat - Love Sounds Journey & BonusTracks (Vocalion CDSML 8573, Austra, SACD)\17 Love is Still Blue  disco mix 3rd.wav
     Pre-gap length  0:00:00.23
     Peak level 51.4 %
     Extraction speed 11.2 X
     Track quality 100.0 %
     Test CRC 24549BF7
     Copy CRC 24549BF7
     Track not present in AccurateRip database
     Copy OK
Track 18
     Filename H:\AUDIO\MUSIC\2020. Paul Muriat - Love Sounds Journey & BonusTracks (Vocalion CDSML 8573, Austra, SACD)\18 Love is Still Blue disco longest mix 5th.wav
     Pre-gap length  0:00:00.04
     Peak level 77.7 %
     Extraction speed 11.2 X
     Track quality 99.9 %
     Test CRC 9031C0C5
     Copy CRC 9031C0C5
     Track not present in AccurateRip database
     Copy OK
None of the tracks are present in the AccurateRip database
No errors occurred
End of status report
==== Log checksum 7DBD7342F9E8C950519A403B65F2ABA19BB7AF7A0B7E409BE58A5B2CE1208CFC ====
Код:
REM GENRE "Easy Listening"
REM DATE 2020
REM DISCID EE10A012
REM COMMENT "ExactAudioCopy v1.3"
PERFORMER "Paul Mauriat "
TITLE "Love Sounds Journey & BonusTracks"
REM COMPOSER ""
FILE "01 36 Nord 140 Est Tokyo.wav" WAVE
  TRACK 01 AUDIO
    TITLE "36 Nord 140 Est Tokyo"
    PERFORMER "Paul Mauriat "
    REM COMPOSER ""
    PREGAP 00:01:00
    INDEX 01 00:00:00
  TRACK 02 AUDIO
    TITLE "Poupee de soie Kyoto "
    PERFORMER "Paul Mauriat "
    REM COMPOSER ""
    INDEX 00 04:29:66
FILE "02 Poupee de soie Kyoto.wav" WAVE
    INDEX 01 00:00:00
  TRACK 03 AUDIO
    TITLE "Oh La La Osaka Osaka "
    PERFORMER "Paul Mauriat "
    REM COMPOSER ""
    INDEX 00 04:28:37
FILE "03 Oh La La Osaka Osaka.wav" WAVE
    INDEX 01 00:00:00
  TRACK 04 AUDIO
    TITLE "La baie des lumieres  Kobe "
    PERFORMER "Paul Mauriat "
    REM COMPOSER ""
    INDEX 00 04:41:53
FILE "04 La baie des lumieres  Kobe.wav" WAVE
    INDEX 01 00:00:00
  TRACK 05 AUDIO
    TITLE "Sea Shell Shore  Kochi "
    PERFORMER "Paul Mauriat "
    REM COMPOSER ""
    INDEX 00 03:42:17
FILE "05 Sea Shell Shore  Kochi.wav" WAVE
    INDEX 01 00:00:00
  TRACK 06 AUDIO
    TITLE "Let There Be Light  Hakata "
    PERFORMER "Paul Mauriat "
    REM COMPOSER ""
    INDEX 00 05:18:51
FILE "06 Let There Be Light  Hakata.wav" WAVE
    INDEX 01 00:00:00
  TRACK 07 AUDIO
    TITLE "Loiseau rare  Kurashiki "
    PERFORMER "Paul Mauriat "
    REM COMPOSER ""
    INDEX 00 03:57:50
FILE "07 Loiseau rare  Kurashiki.wav" WAVE
    INDEX 01 00:00:00
  TRACK 08 AUDIO
    TITLE "Boules de neige  Hakodate "
    PERFORMER "Paul Mauriat "
    REM COMPOSER ""
    INDEX 00 06:09:22
FILE "08 Boules de neige  Hakodate.wav" WAVE
    INDEX 01 00:00:00
  TRACK 09 AUDIO
    TITLE "Memories of Yesterday  Lake Mashu Sapporo "
    PERFORMER "Paul Mauriat "
    REM COMPOSER ""
    INDEX 00 02:10:20
FILE "09 Memories of Yesterday  Lake Mashu Sapporo.wav" WAVE
    INDEX 01 00:00:00
  TRACK 10 AUDIO
    TITLE "L etoile de mer  Sendai "
    PERFORMER "Paul Mauriat "
    REM COMPOSER ""
    INDEX 00 02:16:53
FILE "10 L etoile de mer  Sendai.wav" WAVE
    INDEX 01 00:00:00
  TRACK 11 AUDIO
    TITLE "Demoiselle tango  Kanazawa "
    PERFORMER "Paul Mauriat "
    REM COMPOSER ""
    INDEX 00 03:04:57
FILE "11 Demoiselle tango  Kanazawa.wav" WAVE
    INDEX 01 00:00:00
  TRACK 12 AUDIO
    TITLE "Love is Still Blue disco version 1st "
    PERFORMER "Paul Mauriat "
    REM COMPOSER ""
    INDEX 00 04:51:50
FILE "12 Love is Still Blue disco version 1st.wav" WAVE
    INDEX 01 00:00:00
  TRACK 13 AUDIO
    TITLE "Penelope  disco version "
    PERFORMER "Paul Mauriat "
    REM COMPOSER ""
    INDEX 00 03:14:66
FILE "13 Penelope  disco version.wav" WAVE
    INDEX 01 00:00:00
  TRACK 14 AUDIO
    TITLE "I Will Follow Him Chariot"
    PERFORMER "Paul Mauriat "
    REM COMPOSER ""
    INDEX 00 04:11:49
FILE "14 I Will Follow Him Chariot.wav" WAVE
    INDEX 01 00:00:00
  TRACK 15 AUDIO
    TITLE "La reine de Saba  disco version"
    PERFORMER "Paul Mauriat "
    REM COMPOSER ""
    INDEX 00 02:47:74
FILE "15 La reine de Saba  disco version.wav" WAVE
    INDEX 01 00:00:00
  TRACK 16 AUDIO
    TITLE "Theres a Kind of Hush "
    PERFORMER "Paul Mauriat "
    REM COMPOSER ""
    INDEX 00 03:16:71
FILE "16 Theres a Kind of Hush.wav" WAVE
    INDEX 01 00:00:00
  TRACK 17 AUDIO
    TITLE "Love is Still Blue  disco mix 3rd "
    PERFORMER "Paul Mauriat "
    REM COMPOSER ""
    INDEX 00 03:04:35
FILE "17 Love is Still Blue  disco mix 3rd.wav" WAVE
    INDEX 01 00:00:00
  TRACK 18 AUDIO
    TITLE "Love is Still Blue disco longest mix 5th  "
    PERFORMER "Paul Mauriat "
    REM COMPOSER ""
    INDEX 00 03:12:20
FILE "18 Love is Still Blue disco longest mix 5th.wav" WAVE
    INDEX 01 00:00:00
Правила, инструкции, FAQ!!!
Торрент  Добавлен [23 май 2020, 06:59] Скачать торрент Магнет ссылка
Скачать торрент
[ Размер 20.53 КБ / Просмотров 3 ]

Статус
Проверен 
 
Размер  465.01 МБ
Приватный: Нет (DHT включён)
.torrent скачан  0
 


     Отправить личное сообщение
   
Страница 1 из 1
Показать сообщения за:  Поле сортировки  
Начать новую тему Ответить на тему


Сейчас этот форум просматривают: нет зарегистрированных пользователей и гости: 0


Вы не можете начинать темы
Вы не можете отвечать на сообщения
Вы не можете редактировать свои сообщения
Вы не можете удалять свои сообщения
Вы не можете добавлять вложения

Перейти:  
cron