Начать новую тему Ответить на тему
Статистика раздачи
Размер: 1.02 ГБ | Добавлен: 01 апр 2019, 19:00 | Скачали: 1
Сидеров: 1  [0 байт/сек]    Личеров: 0  [0 байт/сек]
Пред. тема | След. тема 

Автор
Сообщение

СообщениеДобавлено: 01 апр 2019, 19:00 

Ответить с цитатой 

Jb Dunckel - H+
Формат записи/Источник записи: [TR24][OF]
Наличие водяных знаков: Нет
Год издания/переиздания диска: 2018
Жанр: Alternative, Indie, Electronic
Издатель (лейбл): Jive Epic
Продолжительность: 49:33
Наличие сканов в содержимом раздачи: Буклет PDF
Треклист:
01. Hold On (3:45)
02. Love Machine (4:39)
03. The Garden (4:39)
04. Transhumanity (3:11)
05. Qwartz (3:34)
06. Slow Down The Wind (Up) (4:06)
07. Space Age (4:30)
08. In Between The Two Moons (4:52)
09. Show Your Love (3:12)
10. Ballad Non Sense (5:39)
11. Carpet Bombing (4:35)
12. Kill For You (2:51)
 
Pas de nouveau morceau depuis cinq ans, un album en aparté de Nicolas Gaudin en 2015 (Contrepoint, chez Because) et désormais ce H+, qui officialise le retour de Jean-Benoît Dunckel en solo, après avoir dévoilé son côté obscur sur Darkel en 2006. Si les lucratives tournées internationales se poursuivent (ils ont visité l’Australie, les Etats-Unis ou Singapour à l’été 2017 + un show 5 étoiles à la Philharmonie de Paris), ce disque devrait accréditer les rumeurs de friture sur la ligne entre les deux membres de Air. Dunckel cultive d’ailleurs l’ambiguïté dans sa présentation, en déclarant : “Je tire l’expérience sonore de Air, et c’est la continuation solo de mon son de Air, sans renier le passé. C’est une corde que je tire et que j’assume.” Si Gaudin avait trouvé l’inspiration à travers le travail de Glenn Gould sur Les Variations Goldberg de Bach, Dunckel s’affiche ici en architecte de la marque Air et de ce son si caractéristique toujours plébiscité vingt ans après Moon Safari et la BO de Virgin Suicides.
Les copyrights sonores jalonnent cet album qui démarre par Hold On, le single sorti en décembre, avec la voix éthérée de Guillemette Foucard, déjà aperçue sur Music for Museum. Celle de Dunckel s’affirme de plus en plus tout au long de cet opus parsemé de morceaux contemplatifs (Love Machine), de mélodies analogiques comme sur Transhumanity, de vocaux filtrés (Space Age, sorte de Kraftwerk du futur), électronique et pop à la fois (The Garden, qui lorgne les Beatles). Au bout du compte, ce H+ nous rappelle que si les compos de Dunckel plaisent autant depuis tant d’années, c’est parce qu’elles font du bien au corps et reposent l’esprit. Un disque thérapeutique à écouter après une heure de transport en commun, ou, mieux, à emporter dans le métro.
© Smaël Bouaici/Qobuz

Контейнер: FLAC (*.flac)
Тип рипа: tracks
Разрядность: 24/96
Формат: PCM
Количество каналов: 2.0
Код:
foobar2000 1.3.9 / Dynamic Range Meter 1.1.1
log date: 2018-04-03 09:11:02
--------------------------------------------------------------------------------
Analyzed: Jb Dunckel / H+
--------------------------------------------------------------------------------
DR         Peak         RMS     Duration Track
--------------------------------------------------------------------------------
DR7       -1.01 dB    -9.76 dB      3:45 01-Hold On
DR8       -1.04 dB   -10.70 dB      4:39 02-Love Machine
DR6       -1.01 dB    -9.56 dB      4:39 03-The Garden
DR7       -1.01 dB    -8.85 dB      3:11 04-Transhumanity
DR8       -1.04 dB   -11.17 dB      3:34 05-Qwartz
DR7       -1.04 dB    -9.13 dB      4:06 06-Slow Down The Wind (Up)
DR7       -1.04 dB    -9.83 dB      4:30 07-Space Age
DR7       -1.04 dB   -10.53 dB      4:52 08-In Between The Two Moons
DR7       -1.04 dB   -10.51 dB      3:12 09-Show Your Love
DR10      -1.02 dB   -13.34 dB      5:39 10-Ballad Non Sense
DR7       -1.01 dB    -9.39 dB      4:35 11-Carpet Bombing
DR8       -1.01 dB   -10.18 dB      2:51 12-Kill For You
--------------------------------------------------------------------------------
Number of tracks:  12
Official DR value: DR7
Samplerate:        96000 Hz
Channels:          2
Bits per sample:   24
Bitrate:           3112 kbps
Codec:             FLAC
================================================================================
Источник: qobuz.com[/spoiler]
Правила, инструкции, FAQ!!!
Торрент  Добавлен [01 апр 2019, 19:00] Скачать торрент Магнет ссылка
Скачать торрент
[ Размер 11.46 КБ / Просмотров 15 ]

Статус
Проверен 
 
Размер  1.02 ГБ
Приватный: Нет (DHT включён)
.torrent скачан  1
 


     Отправить личное сообщение
   
Страница 1 из 1
Показать сообщения за:  Поле сортировки  
Начать новую тему Ответить на тему


Сейчас этот форум просматривают: нет зарегистрированных пользователей и гости: 0


Вы не можете начинать темы
Вы не можете отвечать на сообщения
Вы не можете редактировать свои сообщения
Вы не можете удалять свои сообщения
Вы не можете добавлять вложения

Перейти:  
cron
cron