Начать новую тему Ответить на тему
Статистика раздачи
Размер: 376.71 МБ | Добавлен: 16 мар 2014, 00:09 | Скачали: 0
Сидеров: 1  [0 байт/сек]    Личеров: 0  [0 байт/сек]
Пред. тема | След. тема 

Автор
Сообщение

СообщениеДобавлено: 16 мар 2014, 00:09 

Ответить с цитатой 

Duncan Mackay - Chimera (1974) Reissue 2009

Жанр: Progressive Rock/Symphonic Prog
Год: 1974
Страна: South Africa
Released: 2009/South Africa
Label: Fresh Music
Catalog#: FRESHCD 164
Аудио кодек: FLAC
Тип рипа: image+.cue
Битрейт аудио: lossless
Продолжительность: 00:46:51
Спасибо: bzp01
Scans: в раздаче
Треклист:
01. Morpheus (11:28)
02. 12 Tone Nostalgia (8:23)
03. Song for Witches (19:56)
Bonus track:
04. The Opening (7:03) (recorded 1990)
#777
В рассветную эпоху арта Дункан Маккей являлся весьма уважаемой персоной в британских рок-кругах.
Уроженец английского города Лидс, он в середине шестидесятых годов прошлого столетия покинул стены отчего дома и перебрался в Порт Элизабет (Южная Африка). Здесь, по прошествии времени, Дункан совместно с братом Гордоном сколотил команду под названием Tricycle. Так они выступали до 1974 года, когда маэстро решил, что хватит с него африканской экзотики, и навострил лыжи обратно в Соединенное Королевство. По приезде на родину мистер Маккей с головой окунулся в музыкально-концертную деятельность. Его клавишные партии звучат на альбомах The Alan Parsons Project (1977—79), 10 CC (1978—83), Camel (1981) и других известных исполнителей. Однако в рамках означенных программ развернуться мощному таланту этого молодого человека было сложно. Если уж говорить начистоту, в чужих проектах роль Маккей фактически сводилась к фоновой работе. Чего не скажешь о «Химере».
Никаких гитар. Ритм-секция + тяжелая артиллерия в виде разнокалиберных клавишных. Три монструозных эпических композиции. Легкая наивность отдельных фрагментов свидетельствует о пограничном характере альбома: своеобразный водораздел меж прото-прогом и полноценным артом. Редкие вокальные вкрапления (голосовой тембр маэстро весьма схож с Бадди Лаки из Psychotic Waltz). Но самое главное – умопомрачительная игра Дункана. Столь фантастическую технику редко встречаешь даже в арт-роке. Сравнения напрашиваются сами собой: Кит Эмерсон, Рик Уэйкман, отчасти Джон Лорд… Искрометный, местами неоклассический прогрессив с обильными поливами «Хаммонда» и чистого фортепиано. Зажигательный драйв при полном отсутствии пафоса.
Автор: Sergei Uvaroff

Musicians:
- Vocals, Piano, Electric Piano, Synthesizer – Duncan Mackay
- Violin, Electric Piano, Piano – Gordon Mackay
- Drums – Mike Gray

- Composed By – Duncan Mackay
- Engineer – Peter Thwaites
Код:
Код:
Exact Audio Copy V1.0 beta 1 from 15. November 2010

EAC extraction logfile from 17. January 2014, 18:48

Duncan Mackay / Chimera

Used drive  : SlimtypeDVD A  DS8A4S   Adapter: 1  ID: 0

Read mode               : Secure
Utilize accurate stream : Yes
Defeat audio cache      : Yes
Make use of C2 pointers : No

Read offset correction                      : 6
Overread into Lead-In and Lead-Out          : No
Fill up missing offset samples with silence : Yes
Delete leading and trailing silent blocks   : No
Null samples used in CRC calculations       : Yes
Used interface                              : Installed external ASPI interface

Used output format : Internal WAV Routines
Sample format      : 44.100 Hz; 16 Bit; Stereo

TOC of the extracted CD

     Track |   Start  |  Length  | Start sector | End sector
    ---------------------------------------------------------
        1  |  0:00.00 | 11:28.34 |         0    |    51633
        2  | 11:28.34 |  8:22.74 |     51634    |    89357
        3  | 19:51.33 | 19:56.28 |     89358    |   179085
        4  | 39:47.61 |  7:03.29 |    179086    |   210839

Range status and errors

Selected range

     Filename D:\bzp01\Duncan Mackay - Chimera (1974) [FLAC] {2009 FRESCD164}\Duncan Mackay - Chimera.wav

     Peak level 99.0 %
     Extraction speed 0.2 X
     Range quality 100.0 %
     Test CRC 3C2BFFC1
     Copy CRC 3C2BFFC1
     Copy OK

No errors occurred

AccurateRip summary

Track  1  cannot be verified as accurate (confidence 1)  [3037483C], AccurateRip returned [5767623E]
Track  2  cannot be verified as accurate (confidence 1)  [80921221], AccurateRip returned [CADA2731]
Track  3  cannot be verified as accurate (confidence 1)  [4CE118D2], AccurateRip returned [D8CC9360]
Track  4  cannot be verified as accurate (confidence 1)  [A15014B7], AccurateRip returned [C01DBD4D]

No tracks could be verified as accurate
You may have a different pressing from the one(s) in the database

End of status report

==== Log checksum 0B26653EC3DA9F0ED689D4D215E8A47A76EF780850BB24AB680DF17C2C11753C ====
Код:
Код:
-----------------------

DON'T MODIFY THIS FILE

-----------------------

PERFORMER: auCDtect Task Manager, ver. 1.6.0 RC1 build 1.6.0.1
Copyright (c) 2008-2010 y-soft. All rights reserved
http:/y-soft.org

ANALYZER: auCDtect: CD records authenticity detector, version 0.8.2
Copyright (c) 2004 Oleg Berngardt. All rights reserved.
Copyright (c) 2004 Alexander Djourik. All rights reserved.

FILE: Duncan Mackay - Chimera.flac
  Size: 324159789 Hash: CA2F6AD4F12E0833A56BF2771E18AC8C Accuracy: -m0
  Conclusion: CDDA 100%
  Signature: FA3307C9B54E3231BC3C7E020F176743F6A6ADDC
Код:
Код:
REM GENRE "Progressive Rock"
REM DATE 1974
REM DISCID 350AFB04
REM COMMENT "ExactAudioCopy v1.0b1"
PERFORMER "Duncan Mackay"
TITLE "Chimera"
FILE "Duncan Mackay - Chimera.flac" WAVE
  TRACK 01 AUDIO
    TITLE "Morpheus"
    PERFORMER "Duncan Mackay"
    INDEX 01 00:00:00
  TRACK 02 AUDIO
    TITLE "12 Tone Nostalgia"
    PERFORMER "Duncan Mackay"
    INDEX 00 11:26:34
    INDEX 01 11:28:34
  TRACK 03 AUDIO
    TITLE "Song for Witches"
    PERFORMER "Duncan Mackay"
    INDEX 00 19:49:33
    INDEX 01 19:51:33
  TRACK 04 AUDIO
    TITLE "The Opening"
    PERFORMER "Duncan Mackay"
    INDEX 00 39:45:61
    INDEX 01 39:47:61
Правила, инструкции, FAQ!!!
Торрент  Добавлен [16 мар 2014, 00:09] Скачать торрент Магнет ссылка
Скачать торрент
[ Размер 16.05 КБ / Просмотров 58 ]

Статус  
 
Размер  376.71 МБ
Приватный: Нет (DHT включён)
.torrent скачан  0
 


     Отправить личное сообщение
   
Страница 1 из 1
Показать сообщения за:  Поле сортировки  
Начать новую тему Ответить на тему


Сейчас этот форум просматривают: нет зарегистрированных пользователей и гости: 0


Вы не можете начинать темы
Вы не можете отвечать на сообщения
Вы не можете редактировать свои сообщения
Вы не можете удалять свои сообщения
Вы не можете добавлять вложения

Перейти:  
cron
cron