Начать новую тему Ответить на тему
Статистика раздачи
Размер: 833.23 МБ | Добавлен: 16 мар 2014, 00:53 | Скачали: 0
Сидеров: 1  [0 байт/сек]    Личеров: 2  [0 байт/сек]
Пред. тема | След. тема 

Автор
Сообщение

СообщениеДобавлено: 16 мар 2014, 00:53 

Ответить с цитатой 


Dream On, Dreamer
- Дискография





Год выпуска: 2010-2013
Жанр: Post-Hardcore | Electronic
Продолжительность: 01:36:02
Тип издания: Дискография
Страна: Австралия



Треклист:

01. Persist The Voice
02. Ambitions
03. Chapter: Desired Performance
04. Blackened Sky
05. Planted Somewhere Hidden
06. In August

Продолжительность: 00:18:36

Код:
Код:
Exact Audio Copy V0.99 prebeta 4 from 23. January 2008
EAC extraction logfile from 12. July 2010, 15:57
Dream On, Dreamer / Hope
Used drive  : HL-DT-STDVDRAM GH20NS15   Adapter: 2  ID: 1
Read mode               : Secure
Utilize accurate stream : Yes
Defeat audio cache      : Yes
Make use of C2 pointers : No
Read offset correction                      : 667
Overread into Lead-In and Lead-Out          : No
Fill up missing offset samples with silence : Yes
Delete leading and trailing silent blocks   : No
Null samples used in CRC calculations       : Yes
Used interface                              : Native Win32 interface for Win NT & 2000
Gap handling                                : Appended to previous track
Used output format              : User Defined Encoder
Selected bitrate                : 320 kBit/s
Quality                         : High
Add ID3 tag                     : No
Command line compressor         : C:\Program Files\Exact Audio Copy\Flac\flac.exe
Additional command line options : -V -8 -T "artist=%a" -T "title=%t" -T "album=%g" -T "date=%y" -T "tracknumber=%n" -T "genre=%m" %s
TOC of the extracted CD
     Track |   Start  |  Length  | Start sector | End sector
    ---------------------------------------------------------
        1  |  0:01.00 |  3:32.39 |        75    |    16013
        2  |  3:33.39 |  3:32.63 |     16014    |    31976
        3  |  7:06.27 |  3:05.24 |     31977    |    45875
        4  | 10:11.51 |  2:35.00 |     45876    |    57500
        5  | 12:46.51 |  2:23.28 |     57501    |    68253
        6  | 15:10.04 |  3:27.00 |     68254    |    83778
Track  1
     Filename E:\Torrents\what cd\FLAC\Dream On Dreamer\Dream On, Dreamer - Hope - 2010 - (FLAC)\01 - Persist The Voice.wav
     Pre-gap length  0:00:03.00
     Peak level 98.4 %
     Track quality 99.9 %
     Test CRC 14EC3C38
     Copy CRC 14EC3C38
     Track not present in AccurateRip database
     Copy OK
Track  2
     Filename E:\Torrents\what cd\FLAC\Dream On Dreamer\Dream On, Dreamer - Hope - 2010 - (FLAC)\02 - Ambitions.wav
     Peak level 100.0 %
     Track quality 99.9 %
     Test CRC 2A8573C7
     Copy CRC 2A8573C7
     Track not present in AccurateRip database
     Copy OK
Track  3
     Filename E:\Torrents\what cd\FLAC\Dream On Dreamer\Dream On, Dreamer - Hope - 2010 - (FLAC)\03 - Chapter- Desired Performance.wav
     Peak level 98.4 %
     Track quality 100.0 %
     Test CRC 18A56D1C
     Copy CRC 18A56D1C
     Track not present in AccurateRip database
     Copy OK
Track  4
     Filename E:\Torrents\what cd\FLAC\Dream On Dreamer\Dream On, Dreamer - Hope - 2010 - (FLAC)\04 - Blackened Sky.wav
     Peak level 100.0 %
     Track quality 100.0 %
     Test CRC 6E4BC60E
     Copy CRC 6E4BC60E
     Track not present in AccurateRip database
     Copy OK
Track  5
     Filename E:\Torrents\what cd\FLAC\Dream On Dreamer\Dream On, Dreamer - Hope - 2010 - (FLAC)\05 - Planted Somewhere Hidden.wav
     Peak level 98.4 %
     Track quality 100.0 %
     Test CRC 909E565A
     Copy CRC 909E565A
     Track not present in AccurateRip database
     Copy OK
Track  6
     Filename E:\Torrents\what cd\FLAC\Dream On Dreamer\Dream On, Dreamer - Hope - 2010 - (FLAC)\06 - In August.wav
     Peak level 98.4 %
     Track quality 100.0 %
     Test CRC 3D38D01D
     Copy CRC 3D38D01D
     Track not present in AccurateRip database
     Copy OK
None of the tracks are present in the AccurateRip database
No errors occurred
End of status report

Код:
Код:
-----------------------

DON'T MODIFY THIS FILE

-----------------------

PERFORMER: auCDtect Task Manager, ver. 1.5.1RC6 build 1.5.1.7
Copyright (c) 2008-2010 y-soft. All rights reserved
http:/y-soft.org

ANALYZER: auCDtect: CD records authenticity detector, version 0.8.2
Copyright (c) 2004 Oleg Berngardt. All rights reserved.
Copyright (c) 2004 Alexander Djourik. All rights reserved.

FILE: 06. Dream On, Dreamer - In August.flac
  Size: 40311400 Hash: E4BFF430FB24E95550D8EE1AE5D02D93 Accuracy: -m0
  Conclusion: CDDA 100%
  Signature: C21950071AEB93AE2FC7D1F347EF1F86C82C652D
FILE: 05. Dream On, Dreamer - Planted Somewhere Hidden.flac
  Size: 32765787 Hash: 6B5EE918D9B3806586AC2E60ABC4DD26 Accuracy: -m0
  Conclusion: CDDA 100%
  Signature: D702F87497A31E6C79AA7ED83E730C6DF4224B3B
FILE: 04. Dream On, Dreamer - Blackened Sky.flac
  Size: 35086945 Hash: 7F3E9A9299833DC061218C99CF00E76D Accuracy: -m0
  Conclusion: CDDA 100%
  Signature: 19B56F25E9813EDA7C53E3C9B5F1D3BD3E8119A8
FILE: 03. Dream On, Dreamer - Chapter_ Desired Performance.flac
  Size: 38907710 Hash: 343727FB4EDD644A721F04993318753B Accuracy: -m0
  Conclusion: CDDA 99%
  Signature: 946F2267D0BFC6DFD22E49A69A40D5808BD4F805
FILE: 02. Dream On, Dreamer - Ambitions.flac
  Size: 41379449 Hash: 3DA21907F3186E2D5DA2A7A5D6633552 Accuracy: -m0
  Conclusion: CDDA 100%
  Signature: 72A1FFB9ACCB0A2A99C09DB34D7992AC92D0DC71
FILE: 01. Dream On, Dreamer - Persist The Voice.flac
  Size: 43117058 Hash: 0452C115F5799CF1826F68437D1CF98B Accuracy: -m0
  Conclusion: CDDA 100%
  Signature: DAB57101E773DAE601474074214B5AD346FA30E6


#777Треклист:

01. I
02. Yourself As Someone Else
03. Downfall
04. A Path of It's Own
05. For What You Believe In
06. Taking Chances, Breaking Free
07. Blinded
08. To the Lost
09. Come Home True Love
10. Lifestream

Продолжительность: 00:35:15


Код:
Код:
Exact Audio Copy V0.99 prebeta 5 from 4. May 2009

EAC extraction logfile from 5. August 2011, 13:35

Dream on, Dreamer / Heartbound

Used drive  : PIONEER DVD-RW  DVR-217   Adapter: 0  ID: 1

Read mode               : Secure
Utilize accurate stream : Yes
Defeat audio cache      : Yes
Make use of C2 pointers : No

Read offset correction                      : 96
Overread into Lead-In and Lead-Out          : No
Fill up missing offset samples with silence : Yes
Delete leading and trailing silent blocks   : No
Null samples used in CRC calculations       : Yes
Used interface                              : Native Win32 interface for Win NT & 2000
Gap handling                                : Appended to previous track

Used output format              : User Defined Encoder
Selected bitrate                : 320 kBit/s
Quality                         : High
Add ID3 tag                     : No
Command line compressor         : C:\Program Files (x86)\Exact Audio Copy\FLAC\FLAC.EXE
Additional command line options : -V -8 -T "artist=%a" -T "title=%t" -T "album=%g" -T "date=%y" -T "tracknumber=%n" -T "genre=%m" %s

TOC of the extracted CD

     Track |   Start  |  Length  | Start sector | End sector
    ---------------------------------------------------------
        1  |  0:00.00 |  0:41.73 |         0    |     3147
        2  |  0:41.73 |  3:37.33 |      3148    |    19455
        3  |  4:19.31 |  4:05.17 |     19456    |    37847
        4  |  8:24.48 |  2:40.67 |     37848    |    49914
        5  | 11:05.40 |  4:00.52 |     49915    |    67966
        6  | 15:06.17 |  3:09.46 |     67967    |    82187
        7  | 18:15.63 |  3:22.61 |     82188    |    97398
        8  | 21:38.49 |  4:49.62 |     97399    |   119135
        9  | 26:28.36 |  3:48.01 |    119136    |   136236
       10  | 30:16.37 |  4:57.02 |    136237    |   158513

Track  1

     Filename I:\FLAC\Dream on, Dreamer - 2011 - Heartbound\01 - I.wav

     Pre-gap length  0:00:02.00

     Peak level 100.0 %
     Track quality 100.0 %
     Test CRC C62C3991
     Copy CRC C62C3991
     Track not present in AccurateRip database
     Copy OK

Track  2

     Filename I:\FLAC\Dream on, Dreamer - 2011 - Heartbound\02 - Yourself As Someone Else.wav

     Peak level 100.0 %
     Track quality 100.0 %
     Test CRC 42191BB3
     Copy CRC 42191BB3
     Track not present in AccurateRip database
     Copy OK

Track  3

     Filename I:\FLAC\Dream on, Dreamer - 2011 - Heartbound\03 - Downfall.wav

     Peak level 100.0 %
     Track quality 100.0 %
     Test CRC 565A1B68
     Copy CRC 565A1B68
     Track not present in AccurateRip database
     Copy OK

Track  4

     Filename I:\FLAC\Dream on, Dreamer - 2011 - Heartbound\04 - A Path of It's Own.wav

     Peak level 100.0 %
     Track quality 100.0 %
     Test CRC 7187A4E1
     Copy CRC 7187A4E1
     Track not present in AccurateRip database
     Copy OK

Track  5

     Filename I:\FLAC\Dream on, Dreamer - 2011 - Heartbound\05 - For What You Believe In.wav

     Peak level 100.0 %
     Track quality 100.0 %
     Test CRC 6B687C65
     Copy CRC 6B687C65
     Track not present in AccurateRip database
     Copy OK

Track  6

     Filename I:\FLAC\Dream on, Dreamer - 2011 - Heartbound\06 - Taking Chances, Breaking Free.wav

     Peak level 100.0 %
     Track quality 99.9 %
     Test CRC 6A02E184
     Copy CRC 6A02E184
     Track not present in AccurateRip database
     Copy OK

Track  7

     Filename I:\FLAC\Dream on, Dreamer - 2011 - Heartbound\07 - Blinded.wav

     Peak level 100.0 %
     Track quality 100.0 %
     Test CRC 570EC30D
     Copy CRC 570EC30D
     Track not present in AccurateRip database
     Copy OK

Track  8

     Filename I:\FLAC\Dream on, Dreamer - 2011 - Heartbound\08 - To the Lost.wav

     Peak level 100.0 %
     Track quality 100.0 %
     Test CRC 919AEDAB
     Copy CRC 919AEDAB
     Track not present in AccurateRip database
     Copy OK

Track  9

     Filename I:\FLAC\Dream on, Dreamer - 2011 - Heartbound\09 - Come Home True Love.wav

     Peak level 100.0 %
     Track quality 100.0 %
     Test CRC C27373D2
     Copy CRC C27373D2
     Track not present in AccurateRip database
     Copy OK

Track 10

     Filename I:\FLAC\Dream on, Dreamer - 2011 - Heartbound\10 - Lifestream.wav

     Peak level 100.0 %
     Track quality 100.0 %
     Test CRC 1B31DABA
     Copy CRC 1B31DABA
     Track not present in AccurateRip database
     Copy OK

None of the tracks are present in the AccurateRip database

No errors occurred

End of status report

Код:
Код:
-----------------------

DON'T MODIFY THIS FILE

-----------------------

PERFORMER: auCDtect Task Manager, ver. 1.5.1RC6 build 1.5.1.7
Copyright (c) 2008-2010 y-soft. All rights reserved
http:/y-soft.org

ANALYZER: auCDtect: CD records authenticity detector, version 0.8.2
Copyright (c) 2004 Oleg Berngardt. All rights reserved.
Copyright (c) 2004 Alexander Djourik. All rights reserved.

FILE: 10. Dream on, Dreamer - Lifestream.flac
  Size: 36924870 Hash: B8C5ACC93693DCE08FD0B1F23DBA3AE3 Accuracy: -m0
  Conclusion: CDDA 99%
  Signature: 1805020FB53B4803247EF6F4B2DEAF6AEE8C86A3
FILE: 09. Dream on, Dreamer - Come Home True Love.flac
  Size: 31446899 Hash: FFA260FE26BC18FCE764737CF7738E0A Accuracy: -m0
  Conclusion: CDDA 100%
  Signature: C3662F4EA7FAEC3698C66E82ED3BD1C48BEAEE23
FILE: 08. Dream on, Dreamer - To the Lost.flac
  Size: 38480777 Hash: 08A122D06FCD796B379D5D2E26B43E18 Accuracy: -m0
  Conclusion: CDDA 100%
  Signature: 626A505A3FCA37202D8FF6AB335D7E8AC03A6898
FILE: 07. Dream on, Dreamer - Blinded.flac
  Size: 28598708 Hash: 7CFEEB38B7CCF57820627FC7ABC3D3C9 Accuracy: -m0
  Conclusion: CDDA 100%
  Signature: E1F429858C1088DC3B3473ADD0E7F087F0C240E9
FILE: 06. Dream on, Dreamer - Taking Chances, Breaking Free.flac
  Size: 27161515 Hash: D5C0CFA2CD09099AD7CB574E7E2248D3 Accuracy: -m0
  Conclusion: CDDA 100%
  Signature: 0185D1231F7A9EBAB005ADE6E5651994192C455D
FILE: 05. Dream on, Dreamer - For What You Believe In.flac
  Size: 34409029 Hash: 2655970E53AE79355598A714DCD11862 Accuracy: -m0
  Conclusion: CDDA 100%
  Signature: 54138C51E4F51C358AB3A2CBC504543CAC48836A
FILE: 04. Dream on, Dreamer - A Path of It's Own.flac
  Size: 23245878 Hash: 70ACD5DE87892C71A1A901FF2FE4418B Accuracy: -m0
  Conclusion: CDDA 100%
  Signature: 471ED9674D12A72BC9C3A3548A980EE57E51E58F
FILE: 03. Dream on, Dreamer - Downfall.flac
  Size: 34072335 Hash: 7054DC45F00A558DF01314742742EF1A Accuracy: -m0
  Conclusion: CDDA 100%
  Signature: BA4E87419F9FB7D88D9659FBBD53AD33FBF6AB4B
FILE: 02. Dream on, Dreamer - Yourself As Someone Else.flac
  Size: 31330682 Hash: 8439F73A40F6D9EFF640D82D1448374D Accuracy: -m0
  Conclusion: CDDA 100%
  Signature: EE0972CF41964749C159450F63F1E86797E8F68A
FILE: 01. Dream on, Dreamer - I.flac
  Size: 5930607 Hash: 83B5F6B778A1F6FF727B77E3EF50078F Accuracy: -m0
  Conclusion: CDDA 100%
  Signature: 75721A55C88AA0BAC8385A3CE96B456FC5EF6F4D


#777Треклист:

01. Loveless
02. The World In Front Of Me
03. Foundations
04. Infinity
05. Hear Me Out
06. Neverlove
07. Moving On, Moving Far
08. Evol
09. Black Maine
10. The Tracks We Leave Behind

Продолжительность: 00:42:13


Код:
Код:
Exact Audio Copy V1.0 beta 3 from 29. August 2011

EAC extraction logfile from 11. September 2013, 18:25

Dream On, Dreamer / Loveless

Used drive  : ATAPI   iHAS324   B   Adapter: 2  ID: 0

Read mode               : Secure
Utilize accurate stream : Yes
Defeat audio cache      : Yes
Make use of C2 pointers : No

Read offset correction                      : 6
Overread into Lead-In and Lead-Out          : No
Fill up missing offset samples with silence : Yes
Delete leading and trailing silent blocks   : No
Null samples used in CRC calculations       : Yes
Used interface                              : Installed external ASPI interface
Gap handling                                : Appended to previous track

Used output format              : User Defined Encoder
Selected bitrate                : 1024 kBit/s
Quality                         : High
Add ID3 tag                     : No
Command line compressor         : C:\Program Files\Exact Audio Copy\Flac\flac.exe
Additional command line options : -8 -V -T "ARTIST=%artist%" -T "TITLE=%title%" -T "ALBUM=%albumtitle%" -T "DATE=%year%" -T "TRACKNUMBER=%tracknr%" -T "GENRE=%genre%" -T "PERFORMER=%albuminterpret%" -T "COMPOSER=%composer%" %haslyrics%--tag-from-file=LYRICS="%lyricsfile%"%haslyrics% -T "ALBUMARTIST=%albumartist%" -T "DISCNUMBER=%cdnumber%" -T "TOTALDISCS=%totalcds%" -T "TOTALTRACKS=%numtracks%" -T "COMMENT=EAC V1.0 beta 3, Secure Mode, Test & Copy, AccurateRip, FLAC -8" %source% -o %dest%

TOC of the extracted CD

     Track |   Start  |  Length  | Start sector | End sector
    ---------------------------------------------------------
        1  |  0:00.00 |  3:15.74 |         0    |    14698
        2  |  3:15.74 |  5:10.74 |     14699    |    38022
        3  |  8:26.73 |  3:15.58 |     38023    |    52705
        4  | 11:42.56 |  4:14.24 |     52706    |    71779
        5  | 15:57.05 |  5:13.38 |     71780    |    95292
        6  | 21:10.43 |  3:33.37 |     95293    |   111304
        7  | 24:44.05 |  4:06.48 |    111305    |   129802
        8  | 28:50.53 |  3:20.40 |    129803    |   144842
        9  | 32:11.18 |  4:00.51 |    144843    |   162893
       10  | 36:11.69 |  6:01.26 |    162894    |   189994

Track  1

     Filename D:\Australian\Dream On, Dreamer - Loveless\01 - Loveless.wav

     Pre-gap length  0:00:02.00

     Peak level 98.8 %
     Extraction speed 3.3 X
     Track quality 100.0 %
     Test CRC 281F0B27
     Copy CRC 281F0B27
     Track not present in AccurateRip database
     Copy OK

Track  2

     Filename D:\Australian\Dream On, Dreamer - Loveless\02 - The World In Front Of Me.wav

     Peak level 100.0 %
     Extraction speed 3.9 X
     Track quality 100.0 %
     Test CRC 81712ED1
     Copy CRC 81712ED1
     Track not present in AccurateRip database
     Copy OK

Track  3

     Filename D:\Australian\Dream On, Dreamer - Loveless\03 - Foundations.wav

     Peak level 99.3 %
     Extraction speed 4.0 X
     Track quality 100.0 %
     Test CRC 412C871C
     Copy CRC 412C871C
     Track not present in AccurateRip database
     Copy OK

Track  4

     Filename D:\Australian\Dream On, Dreamer - Loveless\04 - Infinity.wav

     Peak level 100.0 %
     Extraction speed 3.7 X
     Track quality 99.9 %
     Test CRC 52C476FE
     Copy CRC 52C476FE
     Track not present in AccurateRip database
     Copy OK

Track  5

     Filename D:\Australian\Dream On, Dreamer - Loveless\05 - Hear Me Out.wav

     Peak level 98.8 %
     Extraction speed 5.0 X
     Track quality 100.0 %
     Test CRC 0DBBDDE9
     Copy CRC 0DBBDDE9
     Track not present in AccurateRip database
     Copy OK

Track  6

     Filename D:\Australian\Dream On, Dreamer - Loveless\06 - Neverlove.wav

     Peak level 100.0 %
     Extraction speed 5.0 X
     Track quality 100.0 %
     Test CRC 5BA053DF
     Copy CRC 5BA053DF
     Track not present in AccurateRip database
     Copy OK

Track  7

     Filename D:\Australian\Dream On, Dreamer - Loveless\07 - Moving On, Moving Far.wav

     Peak level 100.0 %
     Extraction speed 4.3 X
     Track quality 99.9 %
     Test CRC A009DB08
     Copy CRC A009DB08
     Track not present in AccurateRip database
     Copy OK

Track  8

     Filename D:\Australian\Dream On, Dreamer - Loveless\08 - Evol.wav

     Peak level 100.0 %
     Extraction speed 4.2 X
     Track quality 99.9 %
     Test CRC E7A549B5
     Copy CRC E7A549B5
     Track not present in AccurateRip database
     Copy OK

Track  9

     Filename D:\Australian\Dream On, Dreamer - Loveless\09 - Black Maine.wav

     Peak level 99.3 %
     Extraction speed 4.6 X
     Track quality 99.9 %
     Test CRC A1476902
     Copy CRC A1476902
     Track not present in AccurateRip database
     Copy OK

Track 10

     Filename D:\Australian\Dream On, Dreamer - Loveless\10 - The Tracks We Leave Behind.wav

     Peak level 100.0 %
     Extraction speed 6.3 X
     Track quality 100.0 %
     Test CRC 9AB815CB
     Copy CRC 9AB815CB
     Track not present in AccurateRip database
     Copy OK

None of the tracks are present in the AccurateRip database

No errors occurred

End of status report

---- CUETools DB Plugin V2.1.3

[CTDB TOCID: vda1.lmWQeqPtzXYXWt2fbuIXWE-] disk not present in database, Submit result: vda1.lmWQeqPtzXYXWt2fbuIXWE- has been uploaded

==== Log checksum 8DF936D5574509EBF46FE1106F448957B79626FE2945E6CC8CFFD3186337D7E1 ====


Код:
Код:
-----------------------

DON'T MODIFY THIS FILE

-----------------------

PERFORMER: auCDtect Task Manager, ver. 1.5.1RC6 build 1.5.1.7
Copyright (c) 2008-2010 y-soft. All rights reserved
http:/y-soft.org

ANALYZER: auCDtect: CD records authenticity detector, version 0.8.2
Copyright (c) 2004 Oleg Berngardt. All rights reserved.
Copyright (c) 2004 Alexander Djourik. All rights reserved.

FILE: 10. Dream On, Dreamer - The Tracks We Leave Behind.flac
  Size: 47115366 Hash: 10C803B89F46D93A81AD5F303423EF85 Accuracy: -m0
  Conclusion: CDDA 100%
  Signature: 6FA2E99A4FB57E2398D95CC65654ACD119115918
FILE: 09. Dream On, Dreamer - Black Maine.flac
  Size: 30183965 Hash: F99AFB93DE351C1480FD6D9D951EF984 Accuracy: -m0
  Conclusion: CDDA 100%
  Signature: 5338797D2A4E005902122EEE0ECA9284700E9A7D
FILE: 08. Dream On, Dreamer - Evol.flac
  Size: 26834502 Hash: 456056E98659FB8BE05E6ADC7FF7A695 Accuracy: -m0
  Conclusion: CDDA 100%
  Signature: 16AFB662BD89F2E894A1237BC25128305651EBCF
FILE: 07. Dream On, Dreamer - Moving On, Moving Far.flac
  Size: 33365847 Hash: 2411CA289EC1FB3892A7B483C574EB4A Accuracy: -m0
  Conclusion: CDDA 100%
  Signature: 533AD2DA479B7BCDAF7321DF10CE817880172B8E
FILE: 06. Dream On, Dreamer - Neverlove.flac
  Size: 29204832 Hash: D8CEB2CE29B460CC884399984A2D851F Accuracy: -m0
  Conclusion: CDDA 100%
  Signature: 320D59EA4737185992F339BD9CCE6C31CE2B0FDE
FILE: 05. Dream On, Dreamer - Hear Me Out.flac
  Size: 36741131 Hash: 8F3C2DEF8EB85838A74CAEFBB4389B2B Accuracy: -m0
  Conclusion: CDDA 100%
  Signature: 1CE6A5054340D84D85146950B2EFDF6622193478
FILE: 04. Dream On, Dreamer - Infinity.flac
  Size: 32850164 Hash: 31550862696BE1EEDBA5628D59A4D5DC Accuracy: -m0
  Conclusion: CDDA 100%
  Signature: 4EA578EE72B78628093A853F6F7FF2CC4BF368E1
FILE: 03. Dream On, Dreamer - Foundations.flac
  Size: 28217284 Hash: 1CE071538967E1193D3EA7F41DDC6A4C Accuracy: -m0
  Conclusion: CDDA 100%
  Signature: 14B82309158DFEE1E7992E61F6223A1C75553071
FILE: 02. Dream On, Dreamer - The World In Front Of Me.flac
  Size: 41506542 Hash: 982DCD48CD0995032CFF10D0FAE330AB Accuracy: -m0
  Conclusion: CDDA 100%
  Signature: 0EFDA68928EF30C24448044324495253189193E3
FILE: 01. Dream On, Dreamer - Loveless.flac
  Size: 23310670 Hash: 61958619186D079DA99D692BF6B8D7C0 Accuracy: -m0
  Conclusion: CDDA 100%
  Signature: FDAD20BEBB60BD2F9E4BEFB53E0215E54F61B2BC




Тип рипа: Tracks+.cue
Аудиокодек: FLAC
Битрейт аудио: lossless
Правила, инструкции, FAQ!!!
Торрент  Добавлен [16 мар 2014, 00:53] Скачать торрент Магнет ссылка
Скачать торрент
[ Размер 20.51 КБ / Просмотров 84 ]

Статус  
 
Размер  833.23 МБ
Приватный: Нет (DHT включён)
.torrent скачан  0
 


     Отправить личное сообщение
   
Страница 1 из 1
Показать сообщения за:  Поле сортировки  
Начать новую тему Ответить на тему


Сейчас этот форум просматривают: нет зарегистрированных пользователей и гости: 0


Вы не можете начинать темы
Вы не можете отвечать на сообщения
Вы не можете редактировать свои сообщения
Вы не можете удалять свои сообщения
Вы не можете добавлять вложения

Перейти:  
cron