Начать новую тему Ответить на тему
Статистика раздачи
Размер: 677.29 МБ | Добавлен: 03 июл 2018, 22:25 | Скачали: 0
Сидеров: 2  [0 байт/сек]    Личеров: 0  [0 байт/сек]
Пред. тема | След. тема 

Автор
Сообщение

СообщениеДобавлено: 03 июл 2018, 22:25 

Ответить с цитатой 

Dottie West - What I'm Cut Out To Be
Формат записи/Источник записи: [TR24][OF]
Наличие водяных знаков: Нет
Год издания/переиздания диска: 1968/2018
Жанр: Country, Pop
Издатель (лейбл): RCA/Legacy
Продолжительность: 30:27
Наличие сканов в содержимом раздачи: Только обложка альбома
Источник: WRZmusic
Магазин: qobuz.com
Треклист:
01. What I'm Cut Out To Be (2:18)
02. Where Love Is (2:18)
03. Catch The Wind (2:17)
04. My Baby's Gone (2:30)
05. Look What You're Doing (3:13)
06. It's Over (2:40)
07. Before The Next Teardrop (2:51)
08. I Don't Wanna Play House (2:43)
09. A Handful (2:33)
10. If You Go Away (4:23)
11. Crying (2:41)
 
What I'm Cut Out to Be is the name of a country music album by Dottie West, released in 1968.
The album sold quite well considering there were no singles released from the disc, peaking in the Country Top 20. One song from the album, "Before The Next Teardrop Falls", became a major hit seven years later for Freddy Fender. Although sales of this album were decent, no singles were released from it.

Контейнер: FLAC (*.flac)
Тип рипа: tracks
Разрядность: 24/96
Формат: PCM
Количество каналов: 2.0
Код:
foobar2000 1.3.9 / Dynamic Range Meter 1.1.1
log date: 2018-06-21 11:11:39
--------------------------------------------------------------------------------
Analyzed: Dottie West / What I'm Cut Out To Be
--------------------------------------------------------------------------------
DR         Peak         RMS     Duration Track
--------------------------------------------------------------------------------
DR10      -1.73 dB   -14.35 dB      2:18 01-What I'm Cut Out To Be
DR10      -0.42 dB   -14.29 dB      2:18 02-Where Love Is
DR10      -0.93 dB   -13.27 dB      2:17 03-Catch The Wind
DR11      -0.42 dB   -14.63 dB      2:30 04-My Baby's Gone
DR11      -0.43 dB   -15.31 dB      3:13 05-Look What You're Doing
DR11      -0.44 dB   -14.70 dB      2:40 06-It's Over
DR10      -0.54 dB   -14.19 dB      2:51 07-Before The Next Teardrop
DR11      -0.42 dB   -14.80 dB      2:43 08-I Don't Wanna Play House
DR11      -1.57 dB   -15.73 dB      2:33 09-A Handful
DR11      -0.42 dB   -15.94 dB      4:23 10-If You Go Away
DR10      -0.42 dB   -13.84 dB      2:41 11-Crying
--------------------------------------------------------------------------------
Number of tracks:  11
Official DR value: DR11
Samplerate:        96000 Hz
Channels:          2
Bits per sample:   24
Bitrate:           3155 kbps
Codec:             FLAC
================================================================================
 
Правила, инструкции, FAQ!!!
Торрент  Добавлен [03 июл 2018, 22:25] Скачать торрент Магнет ссылка
Скачать торрент
[ Размер 14.45 КБ / Просмотров 48 ]

Статус
Проверен 
 
Размер  677.29 МБ
Приватный: Нет (DHT включён)
.torrent скачан  0
 


     Отправить личное сообщение
   
Страница 1 из 1
Показать сообщения за:  Поле сортировки  
Начать новую тему Ответить на тему


Сейчас этот форум просматривают: нет зарегистрированных пользователей и гости: 0


Вы не можете начинать темы
Вы не можете отвечать на сообщения
Вы не можете редактировать свои сообщения
Вы не можете удалять свои сообщения
Вы не можете добавлять вложения

Перейти:  
cron
cron