Начать новую тему Ответить на тему
Статистика раздачи
Размер: 1.16 ГБ | Добавлен: 24 авг 2016, 11:32 | Скачали: 2
Сидеров: 6  [0 байт/сек]    Личеров: 2  [0 байт/сек]
Пред. тема | След. тема 

Автор
Сообщение

СообщениеДобавлено: 24 авг 2016, 11:32 

Ответить с цитатой 

My Dying Bride · Songs Of Darkness, Words Of Light



Жанр: Doom Metal
Год выпуска: 2004 (2014)
Лейбл · Каталог: Peaceville · VILELP518
Страна-производитель: EU
Аудио кодек: FLAC
Тип рипа: tracks
Формат записи: 24/96
Формат раздачи: 24/96
Продолжительность: 00:59:07
Источник оцифровки: ***


01. The Wreckage Of My Flesh (8:44)
02. The Scarlet Garden (7:50)
03. Catherine Blake (6:32)
04. My Wine In Silence (5:48)
05. The Prize Of Beauty (8:02)
06. The Blue Lotus (6:33)
07. And My Fury Stands Ready (7:45)
08. A Doomed Lover (7:51)


Cleaning: Knosti Disco Antistat (Dr Wack/Kodak PhotoFlo > L'Art Du Son/Kodak PhotoFlo > distilled water), Onzow ZeroDust stylus cleaner.
Power (TT/Phono stage): Tacima 6-way mains conditioner and RFI filter
TT: Technics SL120 Mk1
Mats: 1) SDS Sonphonon IsoPlatMat + slipmat
Cartridge: Goldring 1042
TA: Jelco SA 750D with Oyaide HS-TF Carbon Fibre Headshell (OFC wires) > Black Rhodium Stylus Tonearm Cable DIN > 2xRCA
Phono stage: Lehmann Audio Black Cube SE (10+db Gain=off) > Atlas Integra MKIII RCA (3m)
ADC: Tascam DA-3000 > record: PCM 24192 > SD Memory
PC: Save to 32bit float in Izotope 64bit > Careful click reduction + fade in/outs > Cut into individual tracks
1644: Izotope RX4 > Equalizer (High Pass, Linear phase, FFT=16384, 20Hz, Q10) > Resampler (Filter Steepness: 80, Cutoff Shift: 0.98, Pre-Ringing: 1.0, Post Limiter: No) > Dither (MBit+ w. Noise shaping-Lightest, Dither amount-Normal, Auto-blanking & Limiting of noise peaks)
2496: Equalizer (High Pass, Linear phase, FFT=16384, 20Hz, Q10) > Resampler (Filter Steepness: 80, Cutoff Shift: 0.98, Pre-Ringing: 1.0, Post Limiter: No) > Dither (MBit+ w. Noise shaping-Light, Dither amount-Normal, Auto-blanking & Limiting of noise peaks)
foobar2000 1.3.10 / Dynamic Range Meter 1.1.1
log date: 2016-04-24 13:13:49

--------------------------------------------------------------------------------
Analyzed: My Dying Bride / Songs Of Darkness, Words Of Light (2014 2LP Peaceville Reissue)
--------------------------------------------------------------------------------

DR Peak RMS Duration Track
--------------------------------------------------------------------------------
DR10 -3.64 dB -15.54 dB 8:44 01-The Wreckage Of My Flesh
DR11 -3.84 dB -17.15 dB 7:50 02-The Scarlet Garden
DR11 -3.04 dB -16.21 dB 6:32 03-Catherine Blake
DR11 -5.42 dB -17.72 dB 5:48 04-My Wine In Silence
DR11 -3.14 dB -17.23 dB 8:02 05-The Prize Of Beauty
DR11 -2.60 dB -16.21 dB 6:33 06-The Blue Lotus
DR12 -2.45 dB -18.14 dB 7:45 07-And My Fury Stands Ready
DR10 -2.90 dB -14.52 dB 7:51 08-A Doomed Lover
--------------------------------------------------------------------------------

Number of tracks: 8
Official DR value: DR11

Samplerate: 96000 Hz
Channels: 2
Bits per sample: 24
Bitrate: 2946 kbps
Codec: FLAC
================================================================================

Данный материал предоставлен исключительно для ознакомления, после прослушивания уничтожить жёсткий диск. Рекомендуется приобрести фирменную продукцию.
Правила, инструкции, FAQ!!!
Торрент  Добавлен [24 авг 2016, 11:32] Скачать торрент Магнет ссылка
Скачать торрент
[ Размер 24.45 КБ / Просмотров 77 ]

Статус
Проверен 
 
Размер  1.16 ГБ
Приватный: Нет (DHT включён)
.torrent скачан  2
 


     Отправить личное сообщение
   
Страница 1 из 1
Показать сообщения за:  Поле сортировки  
Начать новую тему Ответить на тему


Сейчас этот форум просматривают: нет зарегистрированных пользователей и гости: 0


Вы не можете начинать темы
Вы не можете отвечать на сообщения
Вы не можете редактировать свои сообщения
Вы не можете удалять свои сообщения
Вы не можете добавлять вложения

Перейти:  
cron
cron