Начать новую тему Ответить на тему
Статистика раздачи
Размер: 1.04 ГБ | Добавлен: 05 дек 2013, 10:36 | Скачали: 10
Сидеров: 19  [0 байт/сек]    Личеров: 1  [0 байт/сек]
Пред. тема | След. тема 

Автор
Сообщение

СообщениеДобавлено: 05 дек 2013, 10:36 

Ответить с цитатой 

Dire Straits - Greatest Hits (2008)

Год: 2008
Жанр: Blues Rock, Classic Rock
Страна: England
Страна-производитель диска: Россия
Издатель (лейбл): Star Mark
Номер по каталогу: LDB 5060-1/2
Продолжительность: 02:39:26

Кодек: FLAC
Битрейт: Lossless
Тип рипа: image+.cue
Источник (релизер): CD из личной коллекции.
Наличие сканов в содержимом раздачи: да

Треклист:
Треклист:
01. Calling Elvis (6:22)
02. Money For Nothing (8:19)
03. Your Latest Trick (6:29)
04. Sultans Of Swing (5:48)
05. On Every Street (4:59)
06. You and Your Friend (5:53)
07. Love Over Gold (Live) (3:37)
08. Fade to Black (3:47)
09. Once Upon A Time In The West (5:20)
10. Lady Writer (3:43)
11. Tunnel of Love (8:06)
12. Iron Hand (3:07)
13. Planet of New Orleans (7:44)
14. Brothers In Arms (6:37)
------------------------------------------------------
Продолжительность: 01:19:57
Код:
Код:
Exact Audio Copy V1.0 beta 3 from 29. August 2011

EAC extraction logfile from 15. July 2013, 19:51

Dire Straits / Greatest Hits (CD1)

Used drive  : ASUS    DRW-20B1LT   Adapter: 1  ID: 0

Read mode               : Secure
Utilize accurate stream : Yes
Defeat audio cache      : Yes
Make use of C2 pointers : No

Read offset correction                      : 6
Overread into Lead-In and Lead-Out          : No
Fill up missing offset samples with silence : Yes
Delete leading and trailing silent blocks   : No
Null samples used in CRC calculations       : Yes
Used interface                              : Native Win32 interface for Win NT & 2000

Used output format              : User Defined Encoder
Selected bitrate                : 128 kBit/s
Quality                         : High
Add ID3 tag                     : No
Command line compressor         : C:\Program Files\Exact Audio Copy\Flac\flac.exe
Additional command line options :  -V -8 -T "Date=%year%" -T "Genre=%genre%" %source%

TOC of the extracted CD

     Track |   Start  |  Length  | Start sector | End sector
    ---------------------------------------------------------
        1  |  0:00.00 |  6:22.04 |         0    |    28653
        2  |  6:22.04 |  8:19.13 |     28654    |    66091
        3  | 14:41.17 |  6:29.33 |     66092    |    95299
        4  | 21:10.50 |  5:48.58 |     95300    |   121457
        5  | 26:59.33 |  4:59.26 |    121458    |   143908
        6  | 31:58.59 |  5:53.70 |    143909    |   170453
        7  | 37:52.54 |  3:37.01 |    170454    |   186729
        8  | 41:29.55 |  3:47.49 |    186730    |   203803
        9  | 45:17.29 |  5:20.12 |    203804    |   227815
       10  | 50:37.41 |  3:43.43 |    227816    |   244583
       11  | 54:21.09 |  8:06.35 |    244584    |   281068
       12  | 62:27.44 |  3:07.07 |    281069    |   295100
       13  | 65:34.51 |  7:44.59 |    295101    |   329959
       14  | 73:19.35 |  6:37.46 |    329960    |   359780

Range status and errors

Selected range

     Filename C:\Documents and Settings\Владелец\Мои документы\Моя музыка\Новая папка (3)\Dire Straits - Greatest Hits (CD1).wav

     Peak level 100.0 %
     Extraction speed 9.9 X
     Range quality 99.9 %
     Test CRC E0FF1CA8
     Copy CRC E0FF1CA8
     Copy OK

No errors occurred

AccurateRip summary

Track  1  accurately ripped (confidence 1)  [15416BD9]  (AR v1)
Track  2  accurately ripped (confidence 1)  [3301D4F5]  (AR v1)
Track  3  accurately ripped (confidence 1)  [78B2BFE1]  (AR v1)
Track  4  accurately ripped (confidence 1)  [625B4992]  (AR v1)
Track  5  accurately ripped (confidence 1)  [17791755]  (AR v1)
Track  6  accurately ripped (confidence 1)  [A3820692]  (AR v1)
Track  7  accurately ripped (confidence 1)  [1E1C05CC]  (AR v1)
Track  8  accurately ripped (confidence 1)  [EDFC4628]  (AR v1)
Track  9  accurately ripped (confidence 1)  [190E9A4D]  (AR v1)
Track 10  accurately ripped (confidence 1)  [DBDA3209]  (AR v1)
Track 11  accurately ripped (confidence 1)  [2E34B5CB]  (AR v1)
Track 12  accurately ripped (confidence 1)  [89616A70]  (AR v1)
Track 13  accurately ripped (confidence 1)  [013CA627]  (AR v1)
Track 14  accurately ripped (confidence 1)  [15A31FCB]  (AR v1)

All tracks accurately ripped

End of status report

==== Log checksum EC0FCA2A17B4F4C06644FDB89A30FCD0C86BC544880C9E3FD6C5884C1EEB6B85 ====
Код:
Код:
-----------------------

DON'T MODIFY THIS FILE

-----------------------

PERFORMER: auCDtect Task Manager, ver. 1.5.1RC6 build 1.5.1.7
Copyright (c) 2008-2010 y-soft. All rights reserved
http:/y-soft.org

ANALYZER: auCDtect: CD records authenticity detector, version 0.8.2
Copyright (c) 2004 Oleg Berngardt. All rights reserved.
Copyright (c) 2004 Alexander Djourik. All rights reserved.

FILE: Dire Straits - Greatest Hits (CD1).flac
  Size: 542966438 Hash: 4880056CE4BE91FE492555289F01EF11 Accuracy: -m0
  Conclusion: CDDA 100%
  Signature: A2FC28DD13B8508D6716333BB1A3B9409BBDF058
Код:
Код:
REM GENRE Rock
REM DATE 2008
REM DISCID CA12BD0E
REM COMMENT "ExactAudioCopy v1.0b3"
PERFORMER "Dire Straits"
TITLE "Greatest Hits (CD1)"
FILE "Dire Straits - Greatest Hits (CD1).flac" WAVE
  TRACK 01 AUDIO
    TITLE "Calling Elvis"
    PERFORMER "Dire Straits"
    FLAGS DCP
    INDEX 01 00:00:00
  TRACK 02 AUDIO
    TITLE "Money For Nothing"
    PERFORMER "Dire Straits"
    FLAGS DCP
    INDEX 01 06:22:04
  TRACK 03 AUDIO
    TITLE "Your Latest Trick"
    PERFORMER "Dire Straits"
    FLAGS DCP
    INDEX 01 14:41:17
  TRACK 04 AUDIO
    TITLE "Sultans Of Swing"
    PERFORMER "Dire Straits"
    FLAGS DCP
    INDEX 01 21:10:50
  TRACK 05 AUDIO
    TITLE "On Every Street"
    PERFORMER "Dire Straits"
    FLAGS DCP
    INDEX 01 26:59:33
  TRACK 06 AUDIO
    TITLE "You and Your Friend"
    PERFORMER "Dire Straits"
    FLAGS DCP
    INDEX 01 31:58:59
  TRACK 07 AUDIO
    TITLE "Love Over Gold (Live)"
    PERFORMER "Dire Straits"
    FLAGS DCP
    INDEX 01 37:52:54
  TRACK 08 AUDIO
    TITLE "Fade to Black"
    PERFORMER "Dire Straits"
    FLAGS DCP
    INDEX 01 41:29:55
  TRACK 09 AUDIO
    TITLE "Once Upon A Time In The West"
    PERFORMER "Dire Straits"
    FLAGS DCP
    INDEX 01 45:17:29
  TRACK 10 AUDIO
    TITLE "Lady Writer"
    PERFORMER "Dire Straits"
    FLAGS DCP
    INDEX 01 50:37:41
  TRACK 11 AUDIO
    TITLE "Tunnel of Love"
    PERFORMER "Dire Straits"
    FLAGS DCP
    INDEX 01 54:21:09
  TRACK 12 AUDIO
    TITLE "Iron Hand"
    PERFORMER "Dire Straits"
    FLAGS DCP
    INDEX 01 62:27:44
  TRACK 13 AUDIO
    TITLE "Planet of New Orleans"
    PERFORMER "Dire Straits"
    FLAGS DCP
    INDEX 01 65:34:51
  TRACK 14 AUDIO
    TITLE "Brothers In Arms"
    PERFORMER "Dire Straits"
    FLAGS DCP
    INDEX 01 73:19:35
Трeклист:

01. Telergraph Road (13:53)
02. Romeo And Juliet (6:03)
03. When It Comes To You (4:59)
04. Communique (5:48)
05. Private Investigations (6:19)
06. So Far Away (5:08)
07. Industrial Disease (5:33)
08. The Bug (4:15)
09. Walk To Life (4:11)
10. Heavy Fuel (5:07)
11. My Parties (5:32)
12. Why Worry (8:24)
13. Six Blade Knife (4:11)
------------------------------------------------------
Продолжительность: 01:19:29
Код:
Код:
Exact Audio Copy V1.0 beta 3 from 29. August 2011

EAC extraction logfile from 15. July 2013, 19:25

Dire Straits / Greatest Hits (CD2)

Used drive  : ASUS    DRW-20B1LT   Adapter: 1  ID: 0

Read mode               : Secure
Utilize accurate stream : Yes
Defeat audio cache      : Yes
Make use of C2 pointers : No

Read offset correction                      : 6
Overread into Lead-In and Lead-Out          : No
Fill up missing offset samples with silence : Yes
Delete leading and trailing silent blocks   : No
Null samples used in CRC calculations       : Yes
Used interface                              : Native Win32 interface for Win NT & 2000

Used output format              : User Defined Encoder
Selected bitrate                : 128 kBit/s
Quality                         : High
Add ID3 tag                     : No
Command line compressor         : C:\Program Files\Exact Audio Copy\Flac\flac.exe
Additional command line options :  -V -8 -T "Date=%year%" -T "Genre=%genre%" %source%

TOC of the extracted CD

     Track |   Start  |  Length  | Start sector | End sector
    ---------------------------------------------------------
        1  |  0:00.00 | 13:53.16 |         0    |    62490
        2  | 13:53.16 |  6:03.05 |     62491    |    89720
        3  | 19:56.21 |  4:59.14 |     89721    |   112159
        4  | 24:55.35 |  5:48.05 |    112160    |   138264
        5  | 30:43.40 |  6:19.48 |    138265    |   166737
        6  | 37:03.13 |  5:08.23 |    166738    |   189860
        7  | 42:11.36 |  5:33.73 |    189861    |   214908
        8  | 47:45.34 |  4:15.73 |    214909    |   234106
        9  | 52:01.32 |  4:11.40 |    234107    |   252971
       10  | 56:12.72 |  5:07.43 |    252972    |   276039
       11  | 61:20.40 |  5:32.46 |    276040    |   300985
       12  | 66:53.11 |  8:24.67 |    300986    |   338852
       13  | 75:18.03 |  4:11.11 |    338853    |   357688

Range status and errors

Selected range

     Filename C:\Documents and Settings\Владелец\Мои документы\Моя музыка\Новая папка (3)\Dire Straits - Greatest Hits (CD2).wav

     Peak level 100.0 %
     Extraction speed 9.8 X
     Range quality 99.9 %
     Test CRC 0695D630
     Copy CRC 0695D630
     Copy OK

No errors occurred

AccurateRip summary

Track  1  accurately ripped (confidence 1)  [6B49DB9C]  (AR v1)
Track  2  accurately ripped (confidence 1)  [7F0B2D4A]  (AR v1)
Track  3  accurately ripped (confidence 1)  [17DA65B7]  (AR v1)
Track  4  accurately ripped (confidence 1)  [B0172F2E]  (AR v1)
Track  5  accurately ripped (confidence 1)  [F5378DBC]  (AR v1)
Track  6  accurately ripped (confidence 1)  [DF0A5FA4]  (AR v1)
Track  7  accurately ripped (confidence 1)  [22785DA3]  (AR v1)
Track  8  accurately ripped (confidence 1)  [8F3F315C]  (AR v1)
Track  9  accurately ripped (confidence 1)  [AF9CE92E]  (AR v1)
Track 10  accurately ripped (confidence 1)  [D3BE3D3B]  (AR v1)
Track 11  accurately ripped (confidence 1)  [C0E16E6D]  (AR v1)
Track 12  accurately ripped (confidence 1)  [DC8C048D]  (AR v1)
Track 13  accurately ripped (confidence 1)  [E1754533]  (AR v1)

All tracks accurately ripped

End of status report

==== Log checksum F9979E0C641770906A73C6ADD0568B92CC4B736E8D91735F066AFD91F35CEA26 ====
Код:
Код:
-----------------------

DON'T MODIFY THIS FILE

-----------------------

PERFORMER: auCDtect Task Manager, ver. 1.5.1RC6 build 1.5.1.7
Copyright (c) 2008-2010 y-soft. All rights reserved
http:/y-soft.org

ANALYZER: auCDtect: CD records authenticity detector, version 0.8.2
Copyright (c) 2004 Oleg Berngardt. All rights reserved.
Copyright (c) 2004 Alexander Djourik. All rights reserved.

FILE: Dire Straits - Greatest Hits (CD2).flac
  Size: 557557868 Hash: 8DC076E3E34CFE101BACBFDA9A4BF866 Accuracy: -m0
  Conclusion: CDDA 100%
  Signature: B34E61DD397AB92893D2ABBF740F37FA7886DF65

Код:
Код:
REM GENRE Rock
REM DATE 2008
REM DISCID BD12A10D
REM COMMENT "ExactAudioCopy v1.0b3"
PERFORMER "Dire Straits"
TITLE "Greatest Hits (CD2)"
FILE "Dire Straits - Greatest Hits (CD2).flac" WAVE
  TRACK 01 AUDIO
    TITLE "Telergraph Road"
    PERFORMER "Dire Straits"
    FLAGS DCP
    INDEX 01 00:00:00
  TRACK 02 AUDIO
    TITLE "Romeo And Juliet"
    PERFORMER "Dire Straits"
    FLAGS DCP
    INDEX 00 13:51:16
    INDEX 01 13:53:16
  TRACK 03 AUDIO
    TITLE "When It Comes To You"
    PERFORMER "Dire Straits"
    FLAGS DCP
    INDEX 00 19:54:21
    INDEX 01 19:56:21
  TRACK 04 AUDIO
    TITLE "Communique"
    PERFORMER "Dire Straits"
    FLAGS DCP
    INDEX 00 24:53:35
    INDEX 01 24:55:35
  TRACK 05 AUDIO
    TITLE "Private Investigations"
    PERFORMER "Dire Straits"
    FLAGS DCP
    INDEX 00 30:41:40
    INDEX 01 30:43:40
  TRACK 06 AUDIO
    TITLE "So Far Away"
    PERFORMER "Dire Straits"
    FLAGS DCP
    INDEX 00 37:01:13
    INDEX 01 37:03:13
  TRACK 07 AUDIO
    TITLE "Industrial Disease"
    PERFORMER "Dire Straits"
    FLAGS DCP
    INDEX 00 42:09:36
    INDEX 01 42:11:36
  TRACK 08 AUDIO
    TITLE "The Bug"
    PERFORMER "Dire Straits"
    FLAGS DCP
    INDEX 00 47:43:34
    INDEX 01 47:45:34
  TRACK 09 AUDIO
    TITLE "Walk To Life"
    PERFORMER "Dire Straits"
    FLAGS DCP
    INDEX 00 51:59:32
    INDEX 01 52:01:32
  TRACK 10 AUDIO
    TITLE "Heavy Fuel"
    PERFORMER "Dire Straits"
    FLAGS DCP
    INDEX 00 56:10:72
    INDEX 01 56:12:72
  TRACK 11 AUDIO
    TITLE "My Parties"
    PERFORMER "Dire Straits"
    FLAGS DCP
    INDEX 00 61:18:40
    INDEX 01 61:20:40
  TRACK 12 AUDIO
    TITLE "Why Worry"
    PERFORMER "Dire Straits"
    FLAGS DCP
    INDEX 00 66:51:11
    INDEX 01 66:53:11
  TRACK 13 AUDIO
    TITLE "Six Blade Knife"
    PERFORMER "Dire Straits"
    FLAGS DCP
    INDEX 00 75:16:03
    INDEX 01 75:18:03


Правила, инструкции, FAQ!!!
Торрент  Добавлен [05 дек 2013, 10:36] Скачать торрент Магнет ссылка
Скачать торрент
[ Размер 12.28 КБ / Просмотров 230 ]

Статус  
 
Размер  1.04 ГБ
Приватный: Нет (DHT включён)
.torrent скачан  10
 


     Отправить личное сообщение
   
Страница 1 из 1
Показать сообщения за:  Поле сортировки  
Начать новую тему Ответить на тему


Сейчас этот форум просматривают: нет зарегистрированных пользователей и гости: 0


Вы не можете начинать темы
Вы не можете отвечать на сообщения
Вы не можете редактировать свои сообщения
Вы не можете удалять свои сообщения
Вы не можете добавлять вложения

Перейти:  
cron