Начать новую тему Ответить на тему
Статистика раздачи
Размер: 1.77 ГБ | Добавлен: 01 июл 2017, 08:32 | Скачали: 4
Сидеров: 3  [0 байт/сек]    Личеров: 1  [0 байт/сек]
Пред. тема | След. тема 

Автор
Сообщение

СообщениеДобавлено: 01 июл 2017, 08:32 

Ответить с цитатой 

DIANA ROSS / Eaten Alive
Формат записи/Источник записи: [TR24][OF]
Наличие водяных знаков: Нет
Издание: Expanded edition
Год издания/переиздания диска: 1985/2015
Жанр: R&B, Pop, Disco, Soul
Издатель(лейбл): RCA Records
Продолжительность: 01:25:12
Наличие сканов в содержимом раздачи: Только обложка альбома
Треклист:
01 - Eaten Alive (3:52)
02 - Oh Teacher (3:40)
03 - Experience (4:57)
04 - Chain Reaction (3:50)
05 - More and More (3:07)
06 - I'm Watching You (3:51)
07 - Love on the Line (4:21)
08 - (I Love) Being in Love with You (4:34)
09 - Crime of Passion (3:34)
10 - Don't Give Up on Each Other (3:45)
11 - Eaten Alive (Single Mix) (3:54)
12 - Eaten Alive (Single Mix Instrumental) (4:00)
13 - Eaten Alive (Hot Extended Dance Mix) (5:54)
14 - Eaten Alive (Hot Extended Dance Mix Instrumental) (5:52)
15 - Experience (Single Version) (4:06)
16 - Experience (Instrumental) (4:50)
17 - Experience (Special Dance Mix) (5:47)
18 - Chain Reaction (Special Single Mix) (4:22)
19 - Chain Reaction (Special Dance Mix) (6:55)
Контейнер: FLAC (*.flac)
Тип рипа: tracks
Разрядность: 24/96
Формат: PCM
Количество каналов: 2.0
Код:
foobar2000 1.3.10 / Dynamic Range Meter 1.1.1
log date: 2016-07-02 20:30:25
--------------------------------------------------------------------------------
Analyzed: Diana Ross / Eaten Alive - Expanded Edition
--------------------------------------------------------------------------------
DR         Peak         RMS     Duration Track
--------------------------------------------------------------------------------
DR9       -0.28 dB   -11.36 dB      3:52 01-Eaten Alive
DR11      -0.28 dB   -13.60 dB      3:40 02-Oh Teacher
DR11      -0.28 dB   -13.84 dB      4:57 03-Experience
DR11      -0.28 dB   -13.54 dB      3:50 04-Chain Reaction
DR11      -4.52 dB   -20.20 dB      3:07 05-More and More
DR12      -0.67 dB   -16.98 dB      3:51 06-I'm Watching You
DR10      -0.28 dB   -13.39 dB      4:21 07-Love on the Line
DR12      -0.28 dB   -13.41 dB      4:34 08-(I Love) Being in Love with You
DR9       -0.28 dB   -11.67 dB      3:34 09-Crime of Passion
DR12      -0.28 dB   -16.07 dB      3:45 10-Don't Give Up on Each Other
DR9       -0.28 dB   -10.92 dB      3:54 11-Eaten Alive (Single Mix)
DR12      -0.28 dB   -13.69 dB      4:00 12-Eaten Alive (Single Mix Instrumental)
DR10      -0.28 dB   -12.12 dB      5:54 13-Eaten Alive (Hot Extended Dance Mix)
DR12      -0.28 dB   -14.51 dB      5:52 14-Eaten Alive (Hot Extended Dance Mix Instrumental)
DR12      -0.28 dB   -14.89 dB      4:06 15-Experience (Single Version)
DR13      -0.28 dB   -14.73 dB      4:50 16-Experience (Instrumental)
DR11      -0.28 dB   -13.68 dB      5:47 17-Experience (Special Dance Mix)
DR11      -0.28 dB   -13.56 dB      4:22 18-Chain Reaction (Special Single Mix)
DR11      -0.28 dB   -13.66 dB      6:55 19-Chain Reaction (Special Dance Mix)
--------------------------------------------------------------------------------
Number of tracks:  19
Official DR value: DR11
Samplerate:        96000 Hz
Channels:          2
Bits per sample:   24
Bitrate:           2996 kbps
Codec:             FLAC
================================================================================
Diana Ross - lead vocals
John J. Barnes, Larry Williams - keyboards
George Bitzer - keyboards, synthesizer, piano
Nathan East - bass
Don Felder, George Terry - guitar
Michael Fisher - percussion
Stephen Gadd, Paul Leim - drums
Albhy Galuten - synthesizer, arranger
Gary E. Grant, Jerry Hey - horn
James Newton Howard - keyboards, synthesizer
Kim S. Hutchcroft, Tom Scott - saxophone
Greg Phillinganes - synthesizer
Bill Reichenbach Jr. (credited as Bill Reichenbach) - horn
Barry Gibb - backing vocals, guitar, arranger
Michael Jackson - backing vocals on "Eaten Alive"
Bruce Albertine, Myrna Matthews, Marti McCall - backing vocals
Diana Ross
In a remarkable career spanning over 40 years, Diana Ross has proven herself the consummate music artist as well as one of the most iconic female singers of all time.
Begininng in the sixties, as lead singer of the world renowned singning group, The Supremes, and as a solo performer Ms. Ross achieved the unprecedented feat of twelve number one singles in the USA, rivaled only by The Beatles for the position of the biggest hit group of that generation.
In 1970, Ms. Ross moved to a solo career and for more than three decades has continued to produce an endless stream of chart singles and sell-out tours, at the same time showing herself to be also a high achieving business woman unafraid to take on new challenges and new directions which her remarkable career have brought to her. It was something remarked upon by South African President Nelson Mandela who at his first meeting with her referred to her as "someone who always seems to be running, never walking, she is an inspiration to us all".
In 2004 McNally Smith College of Music honored her by the establishment of a full four year scholarship in her name. The Diana Ross Performance Scholarship is awards each year to an outstanding student who is pursuining a Bachelor in Music.
And so the legend continues.
Released in 1985, Eaten Alive is a 1985 album by Diana Ross. It was produced by Barry Gibb, as well as Michael Jacskon (who co-wrote and performed on the title track).
This Expanded Edition features several re-mixes of three of the tracks ("Eaten Alive", "Experience", and "Chain Reaction").
Источник (релизер): HDtracks
Правила, инструкции, FAQ!!!
Торрент  Добавлен [01 июл 2017, 08:32] Скачать торрент Магнет ссылка
Скачать торрент
[ Размер 19.44 КБ / Просмотров 84 ]

Статус
Проверен 
 
Размер  1.77 ГБ
Приватный: Нет (DHT включён)
.torrent скачан  4
 


     Отправить личное сообщение
   
Страница 1 из 1
Показать сообщения за:  Поле сортировки  
Начать новую тему Ответить на тему


Сейчас этот форум просматривают: нет зарегистрированных пользователей и гости: 0


Вы не можете начинать темы
Вы не можете отвечать на сообщения
Вы не можете редактировать свои сообщения
Вы не можете удалять свои сообщения
Вы не можете добавлять вложения

Перейти:  
cron