Начать новую тему Ответить на тему
Статистика раздачи
Размер: 430.86 МБ | Добавлен: 27 апр 2013, 11:57 | Скачали: 5
Сидеров: 10  [0 байт/сек]    Личеров: 0  [0 байт/сек]
Пред. тема | След. тема 

Автор
Сообщение

СообщениеДобавлено: 27 апр 2013, 11:57 

Ответить с цитатой 

Жанр: Hard Rock
Год издания: 2013
Производитель диска: Germany
Издатель (лейбл): earMUSIC [Edel Group]
Номер по каталогу: B00AO7CC28
Аудиокодек: FLAC
Тип рипа: image+.cue
Битрейт аудио: lossless
Продолжительность: 01:00:09
Источник: Fender Stratocaster
Наличие сканов: есть

Трэклист:
01. A Simple Song (4:39)
02. Weirdistan (4:14)
03. Out Of Hand (6:11)
04. Hell To Pay (5:12)
05. Bodyline (4:27)
06. Above And Beyond (5:31)
07. Blood From A Stone (5:18)
08. Uncommon Man (7:00)
09. Apres Vous (5:26)
10. All The Time In The World (4:21)
11. Vincent Price (4:46)
12. It'll Be Me (Bonus Track) (3:04)

Exact Audio Copy V1.0 beta 3 from 29. August 2011

Отчёт EAC об извлечении, выполненном 25. апреля 2013, 18:48

Deep Purple / Now What

Дисковод: HL-DT-STDVDRAM GU40N Adapter: 0 ID: 1

Режим чтения : Достоверность
Использование точного потока : Да
Отключение кэша аудио : Да
Использование указателей C2 : Нет

Коррекция смещения при чтении : 103
Способность читать области Lead-in и Lead-out : Нет
Заполнение пропущенных сэмплов тишиной : Да
Удаление блоков с тишиной в начале и конце : Нет
При вычислениях CRC использовались нулевые сэмплы : Да
Интерфейс : Встроенный Win32-интерфейс для Win NT/2000

Выходной формат : Пользовательский кодировщик
Выбранный битрейт : 128 kBit/s
Качество : Высокий
Добавление ID3-тега : Нет
Утилита сжатия : C:Program Files (x86)Easy CD-DA Extractorezcddax.exe
Дополнительные параметры : -V -8 -T "Date=%year%" -T "Genre=%genre%" %source%

TOC извлечённого CD

Трек | Старт | Длительность | Начальный сектор | Конечный сектор
---------------------------------------------------------------------
1 | 0:00.00 | 4:39.00 | 0 | 20924
2 | 4:39.00 | 4:14.00 | 20925 | 39974
3 | 8:53.00 | 6:10.54 | 39975 | 67778
4 | 15:03.54 | 5:11.65 | 67779 | 91168
5 | 20:15.44 | 4:26.54 | 91169 | 111172
6 | 24:42.23 | 5:30.61 | 111173 | 135983
7 | 30:13.09 | 5:18.15 | 135984 | 159848
8 | 35:31.24 | 7:00.24 | 159849 | 191372
9 | 42:31.48 | 5:26.17 | 191373 | 215839
10 | 47:57.65 | 4:21.37 | 215840 | 235451
11 | 52:19.27 | 4:46.22 | 235452 | 256923
12 | 57:05.49 | 3:03.50 | 256924 | 270698

Характеристики диапазона извлечения и сообщения об ошибках

Выбранный диапазон

Имя файла C:UsersworkutaginDesktopDeep Purple - Now What.wav

Пиковый уровень 99.8 %
Скорость извлечения 2.1 X
Качество диапазона 100.0 %
CRC теста 888791CB
CRC копии 888791CB
Копирование... OK

Ошибок не произошло

Конец отчёта

==== Контрольная сумма отчёта 00CEA6303E22DCA6919C53B4E2BCAC0C606F09E757B4CEBE2A49FA7E33F4FD99 ====



REM GENRE "Hard Rock"
REM DATE 2013
REM DISCID 9E0E190C
REM COMMENT "ExactAudioCopy v1.0b3"
PERFORMER "Deep Purple"
TITLE "Now What"
FILE "Deep Purple - Now What.flac" WAVE
TRACK 01 AUDIO
TITLE "A Simple Song"
PERFORMER "Deep Purple"
ISRC DEH841300040
INDEX 01 00:00:00
TRACK 02 AUDIO
TITLE "Weirdistan"
PERFORMER "Deep Purple"
ISRC DEH841300041
INDEX 01 04:39:00
TRACK 03 AUDIO
TITLE "Out Of Hand"
PERFORMER "Deep Purple"
ISRC DEH841300042
INDEX 00 08:50:65
INDEX 01 08:53:00
TRACK 04 AUDIO
TITLE "Hell To Pay"
PERFORMER "Deep Purple"
ISRC DEH841300043
INDEX 01 15:03:54
TRACK 05 AUDIO
TITLE "Bodyline"
PERFORMER "Deep Purple"
ISRC DEH841300044
INDEX 01 20:15:44
TRACK 06 AUDIO
TITLE "Above And Beyond"
PERFORMER "Deep Purple"
ISRC DEH841300045
INDEX 01 24:42:23
TRACK 07 AUDIO
TITLE "Blood From A Stone"
PERFORMER "Deep Purple"
ISRC DEH841300046
INDEX 01 30:13:09
TRACK 08 AUDIO
TITLE "Uncommon Man"
PERFORMER "Deep Purple"
ISRC DEH841300047
INDEX 01 35:31:24
TRACK 09 AUDIO
TITLE "Apres Vous"
PERFORMER "Deep Purple"
ISRC DEH841300048
INDEX 00 42:30:48
INDEX 01 42:31:48
TRACK 10 AUDIO
TITLE "All The Time In The World"
PERFORMER "Deep Purple"
ISRC DEH841300049
INDEX 01 47:57:65
TRACK 11 AUDIO
TITLE "Vincent Price"
PERFORMER "Deep Purple"
ISRC DEH841300050
INDEX 01 52:19:27
TRACK 12 AUDIO
TITLE "It'll Be Me (Bonus Track)"
PERFORMER "Deep Purple"
ISRC DEH841300052
INDEX 01 57:05:49






19-й студийный (и последний за 8 лет) альбом группы. Deluxe-издание включает дополнительный бонус-трек.
(В комплекте также вышел DVD с интервью музыкантов и отдельными материалами)...
Записи сделаны в г. Nashville (штат Теннеси). Продюсер - Bob Ezrin, ранее работавший с "Pink Floyd", "Kiss", Alice Cooper, Lou Reed, Peter Gabriel.


Ian Gillan - Vocals
Steve Morse - Guitars
Roger Glover - Bass
Don Airey - Keyboards
Ian Paice - Drums

Producer: Bob Ezrin
Правила, инструкции, FAQ!!!
Торрент  Добавлен [27 апр 2013, 11:57] Скачать торрент Магнет ссылка
Скачать торрент
[ Размер 18.12 КБ / Просмотров 28 ]

Статус  
 
Размер  430.86 МБ
Приватный: Нет (DHT включён)
.torrent скачан  5
 


     Отправить личное сообщение
   
Страница 1 из 1
Показать сообщения за:  Поле сортировки  
Начать новую тему Ответить на тему


Сейчас этот форум просматривают: нет зарегистрированных пользователей и гости: 0


Вы не можете начинать темы
Вы не можете отвечать на сообщения
Вы не можете редактировать свои сообщения
Вы не можете удалять свои сообщения
Вы не можете добавлять вложения

Перейти:  
cron
cron