Начать новую тему Ответить на тему
Статистика раздачи
Размер: 1.96 ГБ | Добавлен: 24 авг 2016, 11:34 | Скачали: 0
Сидеров: 2  [0 байт/сек]    Личеров: 0  [0 байт/сек]
Пред. тема | След. тема 

Автор
Сообщение

СообщениеДобавлено: 24 авг 2016, 11:34 

Ответить с цитатой 

Pungent Stench/ For God Your Soul ... For Me Your Flesh
весной 1990-го выкинула в продажу первый "зловонный" полноформатник. Австрийский шок-дэт не сразу нашел признание публики, но постепенно народ стал проникаться черным юмором PS, и у команды появилась своя армия фанов.

Росту популярности группы также способствовали совместные гастроли с такими коллективами, как Type O Negative, Incantation, Master, Acid Bath, Brutal Truth и Macabre. Осенью 1991-го по Европе (а также и по другим уголкам мира) начала расползаться вторая волна "зловония"
Жанр: Death / Doom Metal
Год выпуска: 1990
Лейбл: Final Holocaust Records – FH 002
Страна-производитель:Russia
Аудио кодек: FLAC
Тип рипа: image+.cue
Формат записи: 32/192
Формат раздачи: 24/192
Продолжительность: 00:43:10
Источник оцифровки: автором раздачи
Код класса состояния винила: NM
Устройство воспроизведения:Pioneer PL-30L
Головка звукоснимателя: Denon DL-103M
Предварительный усилитель: NAD PP2iM
АЦП: Xonar Essence STX
Программа-оцифровщик: Sound Forge Pro 10
Обработка: Sound Forge Pro 10
Pungent Stench
A1 - Intro/Extreme Deformity
A2 - Hypnos
A3 - For God Your Soul...For Me Your Flesh
A4 - Just Let Me Rot
A5 - Pungent Stench

B1 - Bonesawer
B2 - Embalmed In Sulphuric Acid
B3 - Blood, Pus & Gastric Juice
B4 - Suspended Animation
B5 - A Small Lunch
NO/
Companies etc:
Distributed By – SPV GmbH – SPV LP 08-29731
Phonographic Copyright (p) – Nuclear Blast Records
Copyright (c) – Nuclear Blast Records
Mastered At – Elaton (2)
Recorded At – Masterplan Studio
Mixed At – Masterplan Studio
Licensed From – Nuclear Blast
Manufactured By – СП «Апрелевка — Саунд Инк»

Credits:
Artwork By [Layout] – Barbara
Bass – Perkowski*
Drums – Wank*
Guitar, Vocals, Artwork By [Calligraphy] – Schirenc*
Lyrics By – Wank* (tracks: A2, B1 to B4, ), Schirenc* (tracks: A1, A3 to A5, B5)
Photography By [Back Cover Photo] – Eva Kern
Photography By [Frontcover] – Joel-Peter Witkin
Producer, Engineer – Gregor Znort, Stephan Grujic
Producer, Engineer, Music By – Pungent Stench
Notes:
Recorded and mixed at Masterplan Studios, West Germany, December 1989.

This is the original recording of the album with the red font on the rear.
Issued with a printed inner sleeve.

Title for track B3 is mentioned on inner sleeve as: "Blood, Pus & Gastric Juice (Hippie Version)"
Barcode and Other Identifiers
Matrix / Runout (Side A): R90 01931/1-1
Matrix / Runout (Side B): R90 01932/1-1
TITLE "For God Your Soul ... For Me Your Flesh"
PERFORMER "Pungent Stench"
FILE "For God Your Soul ... For Me Your Flesh.flac" WAVE
TRACK 01 AUDIO
TITLE "Intro/Extreme Deformity"
PERFORMER "Pungent Stench"
INDEX 01 00:00:00
TRACK 02 AUDIO
TITLE "Hypnos"
PERFORMER "Pungent Stench"
INDEX 01 05:10:49
TRACK 03 AUDIO
TITLE "For God Your Soul...For Me Your Flesh"
PERFORMER "Pungent Stench"
INDEX 01 08:26:17
TRACK 04 AUDIO
TITLE "Just Let Me Rot"
PERFORMER "Pungent Stench"
INDEX 01 15:31:41
TRACK 05 AUDIO
TITLE "Pungent Stench"
PERFORMER "Pungent Stench"
INDEX 01 19:21:20
TRACK 06 AUDIO
TITLE "Bonesawer"
PERFORMER "Pungent Stench"
INDEX 01 22:08:64
TRACK 07 AUDIO
TITLE "Embalmed In Sulphuric Acid"
PERFORMER "Pungent Stench"
INDEX 01 25:49:32
TRACK 08 AUDIO
TITLE "Blood, Pus & Gastric Juice"
PERFORMER "Pungent Stench"
INDEX 01 28:04:25
TRACK 09 AUDIO
TITLE "Suspended Animation"
PERFORMER "Pungent Stench"
INDEX 01 32:57:15
TRACK 010 AUDIO
TITLE "A Small Lunch"
PERFORMER "Pungent Stench"
INDEX 01 37:21:04
Все материалы представлены исключительно в ознакомительных целях
Правила, инструкции, FAQ!!!
Торрент  Добавлен [24 авг 2016, 11:34] Скачать торрент Магнет ссылка
Скачать торрент
[ Размер 20.4 КБ / Просмотров 19 ]

Статус
Проверен 
 
Размер  1.96 ГБ
Приватный: Нет (DHT включён)
.torrent скачан  0
 


     Отправить личное сообщение
   
Страница 1 из 1
Показать сообщения за:  Поле сортировки  
Начать новую тему Ответить на тему


Сейчас этот форум просматривают: нет зарегистрированных пользователей и гости: 0


Вы не можете начинать темы
Вы не можете отвечать на сообщения
Вы не можете редактировать свои сообщения
Вы не можете удалять свои сообщения
Вы не можете добавлять вложения

Перейти:  
cron
cron