Начать новую тему Ответить на тему
Статистика раздачи
Размер: 104.71 МБ | Добавлен: 05 дек 2013, 10:35 | Скачали: 1
Сидеров: 1  [0 байт/сек]    Личеров: 1  [0 байт/сек]
Пред. тема | След. тема 

Автор
Сообщение

СообщениеДобавлено: 05 дек 2013, 10:35 

Ответить с цитатой 

David Coverdale & Whitesnake - Too Many Tears (1997)


Год: 1997
Жанр: Blues Rock
Лейбл: EMI. Made in UK.
Каталог #: CDEMS471
Продолжительность: 00:14:08
Кодек: FLAC
Тип рипа: image + .cue
Битрейт: Lossless
Треклист:
01. Too Many Tears - Part I (Album Version) (5:46)
02. Can't Stop Now (3:27)
03. Too Many Tears - Part II (4:54)
Код:
Код:
Exact Audio Copy V1.0 beta 3 from 29. August 2011

EAC extraction logfile from 18. November 2013, 9:59

Whitesnake / Too Many Tears

Used drive  : MATSHITADVD-RAM UJ-850S   Adapter: 1  ID: 0

Read mode               : Secure
Utilize accurate stream : Yes
Defeat audio cache      : Yes
Make use of C2 pointers : No

Read offset correction                      : 102
Overread into Lead-In and Lead-Out          : No
Fill up missing offset samples with silence : Yes
Delete leading and trailing silent blocks   : No
Null samples used in CRC calculations       : Yes
Used interface                              : Native Win32 interface for Win NT & 2000

Used output format              : User Defined Encoder
Selected bitrate                : 1024 kBit/s
Quality                         : High
Add ID3 tag                     : No
Command line compressor         : C:\Program Files\Exact Audio Copy\Flac\flac.exe
Additional command line options : -V -8 -T "Date=%year%" -T "Genre=%genre%" %source%

TOC of the extracted CD

     Track |   Start  |  Length  | Start sector | End sector
    ---------------------------------------------------------
        1  |  0:00.32 |  5:45.70 |        32    |    25976
        2  |  5:46.27 |  3:27.28 |     25977    |    41529
        3  |  9:13.55 |  4:54.22 |     41530    |    63601

Range status and errors

Selected range

     Filename C:\Users\815815\Desktop\Whitesnake - 1997 - Too Many Tears.wav

     Peak level 100.0 %
     Extraction speed 1.8 X
     Range quality 100.0 %
     Test CRC 0D5774B2
     Copy CRC 0D5774B2
     Copy OK

No errors occurred

AccurateRip summary

Track  1  accurately ripped (confidence 1)  [677CF54E]  (AR v1)
Track  2  accurately ripped (confidence 1)  [77B6B59E]  (AR v1)
Track  3  accurately ripped (confidence 1)  [D1B8932B]  (AR v1)

All tracks accurately ripped

End of status report

==== Log checksum 849DD0B908BABA635333420CD4C9282ED86C5CA25925714AB16BA8B1A2B2545C ====

Код:
Код:
-----------------------

DON'T MODIFY THIS FILE

-----------------------

PERFORMER: auCDtect Task Manager, ver. 1.6.0 RC1 build 1.6.0.1
Copyright (c) 2008-2010 y-soft. All rights reserved
http:/y-soft.org

ANALYZER: auCDtect: CD records authenticity detector, version 0.8.2
Copyright (c) 2004 Oleg Berngardt. All rights reserved.
Copyright (c) 2004 Alexander Djourik. All rights reserved.

FILE: Whitesnake - 1997 - Too Many Tears.flac
  Size: 101028252 Hash: 22265DB64D4C1C64232C061C211CF205 Accuracy: -m0
  Conclusion: CDDA 100%
  Signature: 4792C942C3B4CE2A72DC9F70D1BD547CCE19716B

Код:
Код:
REM GENRE "Hard Rock"
REM DATE 1997
REM DISCID 20035003
REM COMMENT "ExactAudioCopy v1.0b3"
PERFORMER "Whitesnake"
TITLE "Too Many Tears"
FILE "Whitesnake - 1997 - Too Many Tears.flac" WAVE
  TRACK 01 AUDIO
    TITLE "Too Many Tears - Part I (Album Version)"
    PERFORMER "Whitesnake"
    INDEX 00 00:00:00
    INDEX 01 00:00:32
  TRACK 02 AUDIO
    TITLE "Can't Stop Now"
    PERFORMER "Whitesnake"
    INDEX 00 05:45:02
    INDEX 01 05:46:27
  TRACK 03 AUDIO
    TITLE "Too Many Tears - Part II"
    PERFORMER "Whitesnake"
    INDEX 00 09:12:30
    INDEX 01 09:13:55

Код:
Код:
[CUETools log; Date: 20.11.2013 15:56:42; Version: 2.1.4]
Pregap length 00:00:32.
[CTDB TOCID: AplCZ.cMcraWltpmCnbOVoLUBVM-] disk not present in database.
[AccurateRip ID: 00020045-00069388-20035003] found.
Track   [  CRC   |   V2   ] Status
 01     [677cf54e|f288b86a] (1+0/1) Accurately ripped
 02     [77b6b59e|062e84be] (1+0/1) Accurately ripped
 03     [d1b8932b|8ebdfe87] (1+0/1) Accurately ripped

Track Peak [ CRC32  ] [W/O NULL] [  LOG   ]
 --   99,9 [0D5774B2] [1D9622DF]   CRC32
 01   99,9 [86F7DDAC] [36AC616F]
 02   99,9 [67ACABE1] [B3DE85DF]
 03   99,9 [DB97D764] [A161D200]

Правила, инструкции, FAQ!!!
Торрент  Добавлен [05 дек 2013, 10:35] Скачать торрент Магнет ссылка
Скачать торрент
[ Размер 17.47 КБ / Просмотров 31 ]

Статус  
 
Размер  104.71 МБ
Приватный: Нет (DHT включён)
.torrent скачан  1
 


     Отправить личное сообщение
   
Страница 1 из 1
Показать сообщения за:  Поле сортировки  
Начать новую тему Ответить на тему


Сейчас этот форум просматривают: нет зарегистрированных пользователей и гости: 0


Вы не можете начинать темы
Вы не можете отвечать на сообщения
Вы не можете редактировать свои сообщения
Вы не можете удалять свои сообщения
Вы не можете добавлять вложения

Перейти:  
cron