Начать новую тему Ответить на тему
Статистика раздачи
Размер: 1 ГБ | Добавлен: 05 дек 2013, 10:35 | Скачали: 2
Сидеров: 3  [0 байт/сек]    Личеров: 0  [0 байт/сек]
Пред. тема | След. тема 

Автор
Сообщение

СообщениеДобавлено: 05 дек 2013, 10:35 

Ответить с цитатой 

David Bowie - Best Of Bowie 2CD (2002)

Год: 2002
Жанр: Rock, Glam-Rock, Art-Rock, Pop-Rock, Soul
Страна-производитель диска: USA
Издатель (лейбл): EMI / Virgin | Номер по каталогу: 7243 5 41930 2 6
Источник (релизер): rooflesser
Наличие сканов в содержимом раздачи: да
Продолжительность: 02:33:56

Кодек: FLAC
Битрейт: Lossless

Треклист:
01. Space Oddity
02. The Man Who Sold The World
03. Changes
04. Life On Mars
05. Moonage Daydream
06. Suffragette City
07. Ziggy Stardust
08. All The Young Dudes
09. The Jean Genie
10. Panic In Detroit
11. Rebel Rebel
.....
12. Diamond Dogs
13. Young Americans
14. Fame
15. Golden Years
16. TVC15
17. Sound And Vision
18. Heroes
19. D.J.
Продолжительность: 01:16:53
01. Ashes To Ashes
02. Fashion
03. Scary Monsters (& Super Creeps)
04. Under Pressure [Feat. Queen]
05. Cat People (Putting Out Fire)
06. Let's Dance
07. China Girl
08. Modern Love
09. Blue Jean
10. This Is Not America [Feat. The Pat Metheny Group]
11. Dancing In The Street [Feat. Mick Jagger]
12. Absolute Beginners
13. Time Will Crawl
14. Under The God [Tin Machine]
15. Jump They Say
16. The Heart's Filthy Lesson
17. I'm Afraid Of Americans (V1)
18. Thursday's Child
19. Slow Burn
Продолжительность: 01:17:03
Код:
Код:
Exact Audio Copy V0.99 prebeta 5 from 4. May 2009

Отчёт EAC об извлечении, выполненном 5. февраля 2010, 0:24

David Bowie / Best Of Bowie (Disc 1)

Дисковод: Optiarc DVD RW AD-7170A   Adapter: 1  ID: 0

Режим чтения                 : Достоверность
Использование точного потока : Да
Отключение кэша аудио        : Да
Использование указателей C2  : Нет

Коррекция смещения при чтении                     : 48
Способность читать области Lead-in и Lead-out     : Нет
Заполнение пропущенных сэмплов тишиной            : Да
Удаление блоков с тишиной в начале и конце        : Нет
При вычислениях CRC использовались нулевые сэмплы : Нет
Интерфейс                                         : Встроенный Win32-интерфейс для Win NT/2000

Выходной формат : Внутренние WAV-операции
Формат сэмплов  : 44.100 Гц; 16 бит; стерео

TOC извлечённого CD

     Трек |   Старт  | Длительность | Начальный сектор | Конечный сектор
    ---------------------------------------------------------------------
       1  |  0:00.00 |    5:14.00   |           0      |      23549
       2  |  5:14.00 |    3:59.17   |       23550      |      41491
       3  |  9:13.17 |    3:35.33   |       41492      |      57649
       4  | 12:48.50 |    3:53.22   |       57650      |      75146
       5  | 16:41.72 |    4:40.33   |       75147      |      96179
       6  | 21:22.30 |    3:27.27   |       96180      |     111731
       7  | 24:49.57 |    3:15.40   |      111732      |     126396
       8  | 28:05.22 |    4:13.15   |      126397      |     145386
       9  | 32:18.37 |    4:08.13   |      145387      |     163999
      10  | 36:26.50 |    4:28.25   |      164000      |     184124
      11  | 40:55.00 |    4:31.37   |      184125      |     204486
      12  | 45:26.37 |    6:06.73   |      204487      |     232009
      13  | 51:33.35 |    3:14.72   |      232010      |     246631
      14  | 54:48.32 |    4:17.28   |      246632      |     265934
      15  | 59:05.60 |    3:29.00   |      265935      |     281609
      16  | 62:34.60 |    3:35.10   |      281610      |     297744
      17  | 66:09.70 |    3:05.17   |      297745      |     311636
      18  | 69:15.12 |    3:37.60   |      311637      |     327971
      19  | 72:52.72 |    4:00.60   |      327972      |     346031

Характеристики диапазона извлечения и сообщения об ошибках

Выбранный диапазон

     Имя файла F:\music\d\david bowie (new)\David Bowie - Best Of Bowie (Disc 1).wav

     Пиковый уровень 99.2 %
     Качество диапазона 99.9 %
     CRC теста 7955A2AF
     CRC копии 7955A2AF
     Копирование... OK

Ошибок не произошло

AccurateRip: сводка

Трек  1  точное извлечение (доверие 93)  [7AE7F683]
Трек  2  точное извлечение (доверие 94)  [69A0ED07]
Трек  3  точное извлечение (доверие 94)  [C7C86110]
Трек  4  точное извлечение (доверие 93)  [21A03ED2]
Трек  5  точное извлечение (доверие 92)  [C5A2AF5E]
Трек  6  точное извлечение (доверие 93)  [5CB9AA2C]
Трек  7  точное извлечение (доверие 93)  [E8C3DC97]
Трек  8  точное извлечение (доверие 93)  [2D451C46]
Трек  9  точное извлечение (доверие 92)  [D72094CB]
Трек 10  точное извлечение (доверие 93)  [A4353C31]
Трек 11  точное извлечение (доверие 94)  [FC092402]
Трек 12  точное извлечение (доверие 92)  [BD8A58DB]
Трек 13  точное извлечение (доверие 91)  [0ED4FFD3]
Трек 14  точное извлечение (доверие 90)  [1F98CBF2]
Трек 15  точное извлечение (доверие 92)  [C2654B14]
Трек 16  точное извлечение (доверие 90)  [8896F551]
Трек 17  точное извлечение (доверие 91)  [88D4A648]
Трек 18  точное извлечение (доверие 88)  [F268CF8B]
Трек 19  точное извлечение (доверие 89)  [2D754B1E]

Все треки извлечены точно

Конец отчёта
Код:
Код:
Exact Audio Copy V0.99 prebeta 5 from 4. May 2009

Отчёт EAC об извлечении, выполненном 5. февраля 2010, 1:02

David Bowie / Best Of Bowie (Disc 2)

Дисковод: Optiarc DVD RW AD-7170A   Adapter: 1  ID: 0

Режим чтения                 : Достоверность
Использование точного потока : Да
Отключение кэша аудио        : Да
Использование указателей C2  : Нет

Коррекция смещения при чтении                     : 48
Способность читать области Lead-in и Lead-out     : Нет
Заполнение пропущенных сэмплов тишиной            : Да
Удаление блоков с тишиной в начале и конце        : Нет
При вычислениях CRC использовались нулевые сэмплы : Нет
Интерфейс                                         : Встроенный Win32-интерфейс для Win NT/2000

Выходной формат : Внутренние WAV-операции
Формат сэмплов  : 44.100 Гц; 16 бит; стерео

TOC извлечённого CD

     Трек |   Старт  | Длительность | Начальный сектор | Конечный сектор
    ---------------------------------------------------------------------
       1  |  0:00.00 |    3:38.00   |           0      |      16349
       2  |  3:38.00 |    3:27.15   |       16350      |      31889
       3  |  7:05.15 |    3:34.65   |       31890      |      48004
       4  | 10:40.05 |    3:57.70   |       48005      |      65849
       5  | 14:38.00 |    4:13.30   |       65850      |      84854
       6  | 18:51.30 |    4:10.17   |       84855      |     103621
       7  | 23:01.47 |    4:18.08   |      103622      |     122979
       8  | 27:19.55 |    4:47.50   |      122980      |     144554
       9  | 32:07.30 |    3:12.25   |      144555      |     158979
      10  | 35:19.55 |    3:53.02   |      158980      |     176456
      11  | 39:12.57 |    3:22.45   |      176457      |     191651
      12  | 42:35.27 |    5:39.25   |      191652      |     217101
      13  | 48:14.52 |    4:20.35   |      217102      |     236636
      14  | 52:35.12 |    4:07.73   |      236637      |     255234
      15  | 56:43.10 |    3:54.50   |      255235      |     272834
      16  | 60:37.60 |    3:34.55   |      272835      |     288939
      17  | 64:12.40 |    4:26.47   |      288940      |     308936
      18  | 68:39.12 |    4:27.08   |      308937      |     328969
      19  | 73:06.20 |    3:57.20   |      328970      |     346764

Характеристики диапазона извлечения и сообщения об ошибках

Выбранный диапазон

     Имя файла F:\music\d\david bowie (new)\David Bowie - Best Of Bowie (Disc 2).wav

     Пиковый уровень 98.5 %
     Качество диапазона 99.9 %
     CRC теста 5DA63FB7
     CRC копии 5DA63FB7
     Копирование... OK

Ошибок не произошло

AccurateRip: сводка

Трек  1  точное извлечение (доверие 15)  [1CDBB8AC]
Трек  2  точное извлечение (доверие 15)  [39FD9392]
Трек  3  точное извлечение (доверие 15)  [A7EC06E4]
Трек  4  точное извлечение (доверие 14)  [E88B4FE0]
Трек  5  точное извлечение (доверие 15)  [E6EA15F1]
Трек  6  точное извлечение (доверие 15)  [6A921EE6]
Трек  7  точное извлечение (доверие 15)  [30F4280F]
Трек  8  точное извлечение (доверие 15)  [9F19CBC7]
Трек  9  точное извлечение (доверие 15)  [1ABCCE33]
Трек 10  точное извлечение (доверие 15)  [CEEC2A17]
Трек 11  точное извлечение (доверие 15)  [D664D2DE]
Трек 12  точное извлечение (доверие 15)  [F0BD1A69]
Трек 13  точное извлечение (доверие 15)  [8BE1ED80]
Трек 14  точное извлечение (доверие 15)  [544AE664]
Трек 15  точное извлечение (доверие 14)  [82619BD3]
Трек 16  точное извлечение (доверие 15)  [808919DF]
Трек 17  точное извлечение (доверие 15)  [290CFD1A]
Трек 18  точное извлечение (доверие 14)  [AE2BADC2]
Трек 19  точное извлечение (доверие 15)  [88100D54]

Все треки извлечены точно

Конец отчёта
Код:
Код:
-----------------------

DON'T MODIFY THIS FILE

-----------------------

PERFORMER: auCDtect Task Manager, ver. 1.6.0 RC1 build 1.6.0.1
Copyright (c) 2008-2010 y-soft. All rights reserved
http:/y-soft.org

ANALYZER: auCDtect: CD records authenticity detector, version 0.8.2
Copyright (c) 2004 Oleg Berngardt. All rights reserved.
Copyright (c) 2004 Alexander Djourik. All rights reserved.

FILE: David Bowie - Best Of Bowie (Disc 2).flac
  Size: 548641833 Hash: 8A1BE389DEDCC4F88939414F3F673C57 Accuracy: -m0
  Conclusion: CDDA 100%
  Signature: AD4A05720583C5F29833C09BC138151969D25AF8
FILE: David Bowie - Best Of Bowie (Disc 1).flac
  Size: 521918396 Hash: 8D352127F1BB1FAC9C7D69254BE3032C Accuracy: -m0
  Conclusion: CDDA 100%
  Signature: A1FB68F07409E463D0ECB30526B2926A3B70C97C

Время раздачи:
24/7 (по возможности) до 3-х первых скачавших

Код:
[b]Поглощение/вытеснение [/b]
[b]Только с согласия релизера[/b]
[b][u][i]Bigbeer[/b][/i][/u]

Правила, инструкции, FAQ!!!
Торрент  Добавлен [05 дек 2013, 10:35] Скачать торрент Магнет ссылка
Скачать торрент
[ Размер 11.44 КБ / Просмотров 68 ]

Статус  
 
Размер  1 ГБ
Приватный: Нет (DHT включён)
.torrent скачан  2
 


     Отправить личное сообщение
   
Страница 1 из 1
Показать сообщения за:  Поле сортировки  
Начать новую тему Ответить на тему


Сейчас этот форум просматривают: нет зарегистрированных пользователей и гости: 0


Вы не можете начинать темы
Вы не можете отвечать на сообщения
Вы не можете редактировать свои сообщения
Вы не можете удалять свои сообщения
Вы не можете добавлять вложения

Перейти:  
cron
cron