Начать новую тему Ответить на тему
Статистика раздачи
Размер: 374.74 МБ | Добавлен: 16 мар 2014, 00:07 | Скачали: 0
Сидеров: 1  [0 байт/сек]    Личеров: 0  [0 байт/сек]
Пред. тема | След. тема 

Автор
Сообщение

СообщениеДобавлено: 16 мар 2014, 00:07 

Ответить с цитатой 

Dave Edmunds - ...Again (2013)

Год: 2013
Жанр: Rock, Rock'n'Roll
Лейбл: RPM Records
Каталог #: RPM522
Продолжительность: 00:50:23
Кодек: FLAC
Тип рипа: image + .cue
Битрейт: Lossless
Треклист:
01. Again (3:38)
02. Chutes and Ladders (3:29)
03. Halfway Down (3:28)
04. I Got the Will (4:18)
05. I Love Music (5:13)
06. Standing at the Crossroads (3:27)
07. Return to Sender (2:20)
08. Georgia on my Mind (3:19)
09. It Doesn't Really Matter (3:05)
10. People Wanna Get High (3:39)
11. I Still Love You (2:52)
12. Babyface (2:10)
13. The Claw (2:40)
14. Your Song (3:37)
15. A Better Word for Love (3:11)
Код:
Код:
Exact Audio Copy V1.0 beta 3 from 29. August 2011

EAC extraction logfile from 7. December 2013, 14:12

Dave Edmunds / ...Again

Used drive  : ATAPI   iHAS124   B   Adapter: 2  ID: 0

Read mode               : Secure
Utilize accurate stream : Yes
Defeat audio cache      : Yes
Make use of C2 pointers : No

Read offset correction                      : 6
Overread into Lead-In and Lead-Out          : No
Fill up missing offset samples with silence : Yes
Delete leading and trailing silent blocks   : No
Null samples used in CRC calculations       : Yes
Used interface                              : Native Win32 interface for Win NT & 2000

Used output format              : User Defined Encoder
Selected bitrate                : 1024 kBit/s
Quality                         : High
Add ID3 tag                     : No
Command line compressor         : C:\Program Files (x86)\Exact Audio Copy\FLAC\FLAC.EXE
Additional command line options : -8 -V -T "ARTIST=%artist%" -T "TITLE=%title%" -T "ALBUM=%albumtitle%" -T "DATE=%year%" -T "TRACKNUMBER=%tracknr%" -T "GENRE=%genre%" -T "PERFORMER=%albuminterpret%" -T "COMPOSER=%composer%" %haslyrics%--tag-from-file=LYRICS="%lyricsfile%"%haslyrics% -T "ALBUMARTIST=%albumartist%" -T "DISCNUMBER=%cdnumber%" -T "TOTALDISCS=%totalcds%" -T "TOTALTRACKS=%numtracks%" -T "COMMENT=%comment%" %source% -o %dest%

TOC of the extracted CD

     Track |   Start  |  Length  | Start sector | End sector
    ---------------------------------------------------------
        1  |  0:00.00 |  3:37.44 |         0    |    16318
        2  |  3:37.44 |  3:29.25 |     16319    |    32018
        3  |  7:06.69 |  3:28.20 |     32019    |    47638
        4  | 10:35.14 |  4:18.13 |     47639    |    67001
        5  | 14:53.27 |  5:13.02 |     67002    |    90478
        6  | 20:06.29 |  3:26.66 |     90479    |   105994
        7  | 23:33.20 |  2:19.38 |    105995    |   116457
        8  | 25:52.58 |  3:18.43 |    116458    |   131350
        9  | 29:11.26 |  3:04.49 |    131351    |   145199
       10  | 32:16.00 |  3:38.40 |    145200    |   161589
       11  | 35:54.40 |  2:52.02 |    161590    |   174491
       12  | 38:46.42 |  2:09.39 |    174492    |   184205
       13  | 40:56.06 |  2:39.53 |    184206    |   196183
       14  | 43:35.59 |  3:36.61 |    196184    |   212444
       15  | 47:12.45 |  3:10.65 |    212445    |   226759

Range status and errors

Selected range

     Filename G:\CD\Dave Edmunds - ...Again.wav

     Peak level 99.3 %
     Extraction speed 3.0 X
     Range quality 100.0 %
     Test CRC E4D25216
     Copy CRC E4D25216
     Copy OK

No errors occurred

AccurateRip summary

Track  1  accurately ripped (confidence 1)  [AEA40C9A]  (AR v1)
Track  2  accurately ripped (confidence 1)  [2B2B3425]  (AR v1)
Track  3  accurately ripped (confidence 1)  [829DD1A8]  (AR v1)
Track  4  accurately ripped (confidence 1)  [CEB3817E]  (AR v1)
Track  5  accurately ripped (confidence 1)  [967EA712]  (AR v1)
Track  6  accurately ripped (confidence 1)  [35249B67]  (AR v1)
Track  7  accurately ripped (confidence 1)  [C5E07560]  (AR v1)
Track  8  accurately ripped (confidence 1)  [AC3B7505]  (AR v1)
Track  9  accurately ripped (confidence 1)  [688ABF70]  (AR v1)
Track 10  accurately ripped (confidence 1)  [F781BB9E]  (AR v1)
Track 11  accurately ripped (confidence 1)  [895602DC]  (AR v1)
Track 12  accurately ripped (confidence 1)  [92108679]  (AR v1)
Track 13  accurately ripped (confidence 1)  [7EF4494B]  (AR v1)
Track 14  accurately ripped (confidence 1)  [78184EA3]  (AR v1)
Track 15  accurately ripped (confidence 1)  [2F8D8C8F]  (AR v1)

All tracks accurately ripped

End of status report

==== Log checksum 141508B97F7253D4DD3913C5D9B157EDB1BDB578FEFDDEB3755F10CEB7C6F2BF ====

Код:
Код:
-----------------------

DON'T MODIFY THIS FILE

-----------------------

PERFORMER: auCDtect Task Manager, ver. 1.6.0 RC1 build 1.6.0.1
Copyright (c) 2008-2010 y-soft. All rights reserved
http:/y-soft.org

ANALYZER: auCDtect: CD records authenticity detector, version 0.8.2
Copyright (c) 2004 Oleg Berngardt. All rights reserved.
Copyright (c) 2004 Alexander Djourik. All rights reserved.

FILE: Dave Edmunds - ...Again.flac
  Size: 361607001 Hash: B24289F754888AEC2A4E11A089257D88 Accuracy: -m0
  Conclusion: MPEG 95%
  Signature: AD83BE0044D06370B95A1B9F5747A419D4B1D191

Код:
Код:
REM GENRE "Rock & Roll"
REM DATE 2013
REM DISCID DD0BCF0F
REM COMMENT "ExactAudioCopy v1.0b3"
PERFORMER "Dave Edmunds"
TITLE ...Again
FILE "Dave Edmunds - ...Again.flac" WAVE
  TRACK 01 AUDIO
    TITLE Again
    PERFORMER "Dave Edmunds"
    ISRC GBYDR1302860
    INDEX 01 00:00:00
  TRACK 02 AUDIO
    TITLE "Chutes and Ladders"
    PERFORMER "Dave Edmunds"
    ISRC GBYDR1302861
    INDEX 00 03:35:51
    INDEX 01 03:37:44
  TRACK 03 AUDIO
    TITLE "Halfway Down"
    PERFORMER "Dave Edmunds"
    ISRC GBYDR1302862
    INDEX 00 07:04:72
    INDEX 01 07:06:69
  TRACK 04 AUDIO
    TITLE "I Got the Will"
    PERFORMER "Dave Edmunds"
    ISRC GBYDR1302863
    INDEX 00 10:32:65
    INDEX 01 10:35:14
  TRACK 05 AUDIO
    TITLE "I Love Music"
    PERFORMER "Dave Edmunds"
    ISRC GBYDR1302864
    INDEX 00 14:49:53
    INDEX 01 14:53:27
  TRACK 06 AUDIO
    TITLE "Standing at the Crossroads"
    PERFORMER "Dave Edmunds"
    ISRC GBYDR1302865
    INDEX 00 20:02:69
    INDEX 01 20:06:29
  TRACK 07 AUDIO
    TITLE "Return to Sender"
    PERFORMER "Dave Edmunds"
    ISRC GBYDR1302866
    INDEX 00 23:30:19
    INDEX 01 23:33:20
  TRACK 08 AUDIO
    TITLE "Georgia on my Mind"
    PERFORMER "Dave Edmunds"
    ISRC GBYDR1302867
    INDEX 00 25:49:47
    INDEX 01 25:52:58
  TRACK 09 AUDIO
    TITLE "It Doesn't Really Matter"
    PERFORMER "Dave Edmunds"
    ISRC GBYDR1302868
    INDEX 00 29:09:30
    INDEX 01 29:11:26
  TRACK 10 AUDIO
    TITLE "People Wanna Get High"
    PERFORMER "Dave Edmunds"
    ISRC GBYDR1302869
    INDEX 00 32:13:08
    INDEX 01 32:16:00
  TRACK 11 AUDIO
    TITLE "I Still Love You"
    PERFORMER "Dave Edmunds"
    ISRC GBYDR1302870
    INDEX 00 35:51:12
    INDEX 01 35:54:40
  TRACK 12 AUDIO
    TITLE Babyface
    PERFORMER "Dave Edmunds"
    ISRC GBYDR1302871
    INDEX 00 38:43:47
    INDEX 01 38:46:42
  TRACK 13 AUDIO
    TITLE "The Claw"
    PERFORMER "Dave Edmunds"
    ISRC GBYDR1302872
    INDEX 00 40:52:49
    INDEX 01 40:56:06
  TRACK 14 AUDIO
    TITLE "Your Song"
    PERFORMER "Dave Edmunds"
    ISRC GBYDR1302873
    INDEX 00 43:32:16
    INDEX 01 43:35:59
  TRACK 15 AUDIO
    TITLE "A Better Word for Love"
    PERFORMER "Dave Edmunds"
    ISRC GBYDR1302874
    INDEX 00 47:09:65
    INDEX 01 47:12:45
Код:
Код:
[CUETools log; Date: 01.01.2014 11:33:07; Version: 2.1.4]
[CTDB TOCID: zWtUbQlcsR8xrrrJDTe6UF.jKPk-] disk not present in database.
[AccurateRip ID: 001d1dab-014581b7-dd0bcf0f] found.
Track   [  CRC   |   V2   ] Status
 01     [aea40c9a|bd3ffc17] (1+0/1) Accurately ripped
 02     [2b2b3425|7fd814d3] (1+0/1) Accurately ripped
 03     [829dd1a8|967ce86d] (1+0/1) Accurately ripped
 04     [ceb3817e|8e782363] (1+0/1) Accurately ripped
 05     [967ea712|eeb54284] (1+0/1) Accurately ripped
 06     [35249b67|a17fac09] (1+0/1) Accurately ripped
 07     [c5e07560|a0990476] (1+0/1) Accurately ripped
 08     [ac3b7505|d96efc57] (1+0/1) Accurately ripped
 09     [688abf70|2441e3ae] (1+0/1) Accurately ripped
 10     [f781bb9e|bbeeaf18] (1+0/1) Accurately ripped
 11     [895602dc|a9fd5b9a] (1+0/1) Accurately ripped
 12     [92108679|5337d23e] (1+0/1) Accurately ripped
 13     [7ef4494b|81f6d13c] (1+0/1) Accurately ripped
 14     [78184ea3|98bbb1e4] (1+0/1) Accurately ripped
 15     [2f8d8c8f|eb115e74] (1+0/1) Accurately ripped

Track Peak [ CRC32  ] [W/O NULL] [  LOG   ]
 --   99,3 [E4D25216] [1B179F44]   CRC32
 01   99,3 [48D2C103] [6063341C]
 02   94,2 [99F48233] [0E764838]
 03   99,3 [C47FF017] [6490C9F3]
 04   95,1 [CBB9A175] [B71963D8]
 05   99,1 [A73BBEF0] [DEA25229]
 06   93,4 [2B14DF84] [F17F7DA5]
 07   99,3 [07306541] [9F626748]
 08   99,3 [B18FA55A] [31953F20]
 09   93,4 [793957A0] [BE960B89]
 10   99,3 [E5B4540D] [268BACD4]
 11   94,2 [65A007B2] [88F13723]
 12   99,3 [0291718C] [1046080B]
 13   99,3 [126E4CD6] [665555E9]
 14   99,3 [09229B31] [E1B740E3]
 15   99,3 [8CA0D292] [EC637812]

Правила, инструкции, FAQ!!!
Торрент  Добавлен [16 мар 2014, 00:07] Скачать торрент Магнет ссылка
Скачать торрент
[ Размер 16.03 КБ / Просмотров 37 ]

Статус  
 
Размер  374.74 МБ
Приватный: Нет (DHT включён)
.torrent скачан  0
 


     Отправить личное сообщение
   
Страница 1 из 1
Показать сообщения за:  Поле сортировки  
Начать новую тему Ответить на тему


Сейчас этот форум просматривают: нет зарегистрированных пользователей и гости: 0


Вы не можете начинать темы
Вы не можете отвечать на сообщения
Вы не можете редактировать свои сообщения
Вы не можете удалять свои сообщения
Вы не можете добавлять вложения

Перейти:  
cron
cron