Начать новую тему Ответить на тему
Статистика раздачи
Размер: 401.69 МБ | Добавлен: 16 мар 2014, 00:40 | Скачали: 1
Сидеров: 9  [0 байт/сек]    Личеров: 1  [0 байт/сек]
Пред. тема | След. тема 

Автор
Сообщение

СообщениеДобавлено: 16 мар 2014, 00:40 

Ответить с цитатой 

Daughtry - Baptized (Deluxe Edition) (2013)

Жанр: Alternative Rock, Pop-rock
Год издания: 2013
Издатель (лейбл): RCA
Номер по каталогу: 88883796552
Аудиокодек: FLAC (*.flac)
Тип рипа: tracks+.cue
Битрейт аудио: lossless
Продолжительность: 00:55:36
Треклист:
01. Baptized (3:12)
02. Waiting For Superman (4:27)
03. Battleships (3:52)
04. I'll Fight (3:01)
05. Wild Heart (3:51)
06. Long Live Rock & Roll (3:36)
07. The World We Knew (3:36)
08. High Above The Ground (3:11)
09. Broken Arrows (4:09)
10. Witness (4:11)
11. Traitor (3:04)
12. 18 Years (4:51)
13. Undefeated (3:40)
14. Cinderella (3:13)
15. Battleships [Acoustic] (3:42)

Код:
Код:
Exact Audio Copy V1.0 beta 3 from 29. August 2011

EAC extraction logfile from 4. December 2013, 16:04

Daughtry / Baptized

Used drive  : hp      DVD A  DS8A5LH   Adapter: 0  ID: 1

Read mode               : Secure
Utilize accurate stream : Yes
Defeat audio cache      : Yes
Make use of C2 pointers : No

Read offset correction                      : 6
Overread into Lead-In and Lead-Out          : No
Fill up missing offset samples with silence : Yes
Delete leading and trailing silent blocks   : No
Null samples used in CRC calculations       : Yes
Used interface                              : Native Win32 interface for Win NT & 2000
Gap handling                                : Appended to previous track

Used output format              : User Defined Encoder
Selected bitrate                : 1024 kBit/s
Quality                         : High
Add ID3 tag                     : No
Command line compressor         : C:\Program Files (x86)\Exact Audio Copy\Flac\flac.exe
Additional command line options :  -8 -V -T "ARTIST=%artist%" -T "TITLE=%title%" -T "ALBUM=%albumtitle%" -T "DATE=%year%" -T "TRACKNUMBER=%tracknr%" -T "GENRE=%genre%" -T "PERFORMER=%albuminterpret%" -T "COMPOSER=%composer%" %haslyrics%--tag-from-file=LYRICS="%lyricsfile%"%haslyrics% -T "ALBUMARTIST=%albumartist%" -T "DISCNUMBER=%cdnumber%" -T "TOTALDISCS=%totalcds%" -T "TOTALTRACKS=%numtracks%" -T "COMMENT=%comment%" %source% -o %dest%

TOC of the extracted CD

     Track |   Start  |  Length  | Start sector | End sector
    ---------------------------------------------------------
        1  |  0:00.00 |  3:11.47 |         0    |    14371
        2  |  3:11.47 |  4:26.72 |     14372    |    34393
        3  |  7:38.44 |  3:52.10 |     34394    |    51803
        4  | 11:30.54 |  3:00.55 |     51804    |    65358
        5  | 14:31.34 |  3:50.47 |     65359    |    82655
        6  | 18:22.06 |  3:36.22 |     82656    |    98877
        7  | 21:58.28 |  3:35.74 |     98878    |   115076
        8  | 25:34.27 |  3:11.20 |    115077    |   129421
        9  | 28:45.47 |  4:08.52 |    129422    |   148073
       10  | 32:54.24 |  4:11.30 |    148074    |   166928
       11  | 37:05.54 |  3:03.50 |    166929    |   180703
       12  | 40:09.29 |  4:51.33 |    180704    |   202561
       13  | 45:00.62 |  3:40.03 |    202562    |   219064
       14  | 48:40.65 |  3:13.21 |    219065    |   233560
       15  | 51:54.11 |  3:41.38 |    233561    |   250173

Track  1

     Filename C:\_\Daughtry - Baptized Deluxe Edition\01 Baptized.wav

     Pre-gap length  0:00:02.00

     Peak level 99.9 %
     Extraction speed 2.9 X
     Track quality 100.0 %
     Test CRC 116CAB29
     Copy CRC 116CAB29
     Accurately ripped (confidence 4)  [DDC91DCB]  (AR v2)
     Copy OK

Track  2

     Filename C:\_\Daughtry - Baptized Deluxe Edition\02 Waiting For Superman.wav

     Pre-gap length  0:00:01.16

     Peak level 99.9 %
     Extraction speed 3.3 X
     Track quality 100.0 %
     Test CRC BA6F84D3
     Copy CRC BA6F84D3
     Accurately ripped (confidence 4)  [B5C40A31]  (AR v2)
     Copy OK

Track  3

     Filename C:\_\Daughtry - Baptized Deluxe Edition\03 Battleships.wav

     Peak level 99.9 %
     Extraction speed 3.5 X
     Track quality 100.0 %
     Test CRC 95E033F7
     Copy CRC 95E033F7
     Accurately ripped (confidence 4)  [8B4E2BA1]  (AR v2)
     Copy OK

Track  4

     Filename C:\_\Daughtry - Baptized Deluxe Edition\04 I'll Fight.wav

     Peak level 99.9 %
     Extraction speed 3.6 X
     Track quality 100.0 %
     Test CRC 7562B7B9
     Copy CRC 7562B7B9
     Accurately ripped (confidence 4)  [30BAC8D7]  (AR v2)
     Copy OK

Track  5

     Filename C:\_\Daughtry - Baptized Deluxe Edition\05 Wild Heart.wav

     Peak level 99.9 %
     Extraction speed 3.9 X
     Track quality 100.0 %
     Test CRC 2975187E
     Copy CRC 2975187E
     Accurately ripped (confidence 4)  [0E72078A]  (AR v2)
     Copy OK

Track  6

     Filename C:\_\Daughtry - Baptized Deluxe Edition\06 Long Live Rock & Roll.wav

     Peak level 99.9 %
     Extraction speed 4.1 X
     Track quality 100.0 %
     Test CRC AE5F27A5
     Copy CRC AE5F27A5
     Accurately ripped (confidence 3)  [3CAECF1A]  (AR v2)
     Copy OK

Track  7

     Filename C:\_\Daughtry - Baptized Deluxe Edition\07 The World We Knew.wav

     Peak level 99.9 %
     Extraction speed 4.3 X
     Track quality 100.0 %
     Test CRC 5F67C290
     Copy CRC 5F67C290
     Accurately ripped (confidence 4)  [FB885AF4]  (AR v2)
     Copy OK

Track  8

     Filename C:\_\Daughtry - Baptized Deluxe Edition\08 High Above The Ground.wav

     Peak level 99.9 %
     Extraction speed 4.3 X
     Track quality 100.0 %
     Test CRC 3A3C3CA1
     Copy CRC 3A3C3CA1
     Accurately ripped (confidence 3)  [38AFAE63]  (AR v2)
     Copy OK

Track  9

     Filename C:\_\Daughtry - Baptized Deluxe Edition\09 Broken Arrows.wav

     Peak level 99.9 %
     Extraction speed 4.7 X
     Track quality 100.0 %
     Test CRC 24F8D952
     Copy CRC 24F8D952
     Accurately ripped (confidence 3)  [48C0938C]  (AR v2)
     Copy OK

Track 10

     Filename C:\_\Daughtry - Baptized Deluxe Edition\10 Witness.wav

     Peak level 99.9 %
     Extraction speed 4.9 X
     Track quality 100.0 %
     Test CRC 06C41272
     Copy CRC 06C41272
     Accurately ripped (confidence 4)  [4B97D67C]  (AR v2)
     Copy OK

Track 11

     Filename C:\_\Daughtry - Baptized Deluxe Edition\11 Traitor.wav

     Peak level 89.3 %
     Extraction speed 4.8 X
     Track quality 100.0 %
     Test CRC A8CBD1BE
     Copy CRC A8CBD1BE
     Accurately ripped (confidence 4)  [F9FEF5FE]  (AR v2)
     Copy OK

Track 12

     Filename C:\_\Daughtry - Baptized Deluxe Edition\12 18 Years.wav

     Pre-gap length  0:00:01.00

     Peak level 99.9 %
     Extraction speed 5.3 X
     Track quality 100.0 %
     Test CRC 09570E3B
     Copy CRC 09570E3B
     Accurately ripped (confidence 4)  [83545C9B]  (AR v2)
     Copy OK

Track 13

     Filename C:\_\Daughtry - Baptized Deluxe Edition\13 Undefeated.wav

     Peak level 99.8 %
     Extraction speed 5.3 X
     Track quality 100.0 %
     Test CRC 3D764D0C
     Copy CRC 3D764D0C
     Accurately ripped (confidence 4)  [5B0FEA86]  (AR v2)
     Copy OK

Track 14

     Filename C:\_\Daughtry - Baptized Deluxe Edition\14 Cinderella.wav

     Peak level 99.8 %
     Extraction speed 5.3 X
     Track quality 100.0 %
     Test CRC 4088EE54
     Copy CRC 4088EE54
     Accurately ripped (confidence 4)  [A82EC24A]  (AR v2)
     Copy OK

Track 15

     Filename C:\_\Daughtry - Baptized Deluxe Edition\15 Battleships [Acoustic].wav

     Peak level 99.8 %
     Extraction speed 5.6 X
     Track quality 100.0 %
     Test CRC 3FC5BA60
     Copy CRC 3FC5BA60
     Accurately ripped (confidence 4)  [2297F83F]  (AR v2)
     Copy OK

All tracks accurately ripped

No errors occurred

End of status report

==== Log checksum 0CD90F15223BBCA0C63C616E94859673C0B577DFBE7067A4C6F0C8733DAFA0D9 ====

Код:
Код:
REM GENRE Rock
REM DATE 2013
REM DISCID B90D070F
REM COMMENT "ExactAudioCopy v1.0b3"
PERFORMER "Daughtry"
TITLE "Baptized"
FILE "01 Baptized.wav" WAVE
  TRACK 01 AUDIO
    TITLE "Baptized"
    PERFORMER "Daughtry"
    ISRC GBCTA1300127
    INDEX 01 00:00:00
  TRACK 02 AUDIO
    TITLE "Waiting For Superman"
    PERFORMER "Daughtry"
    ISRC GBCTA1300101
    INDEX 00 03:10:35
FILE "02 Waiting For Superman.wav" WAVE
    INDEX 01 00:00:00
FILE "03 Battleships.wav" WAVE
  TRACK 03 AUDIO
    TITLE "Battleships"
    PERFORMER "Daughtry"
    ISRC GBCTA1300054
    INDEX 01 00:00:00
FILE "04 I'll Fight.wav" WAVE
  TRACK 04 AUDIO
    TITLE "I'll Fight"
    PERFORMER "Daughtry"
    ISRC GBCTA1300128
    INDEX 01 00:00:00
FILE "05 Wild Heart.wav" WAVE
  TRACK 05 AUDIO
    TITLE "Wild Heart"
    PERFORMER "Daughtry"
    ISRC GBCTA1300129
    INDEX 01 00:00:00
FILE "06 Long Live Rock & Roll.wav" WAVE
  TRACK 06 AUDIO
    TITLE "Long Live Rock & Roll"
    PERFORMER "Daughtry"
    ISRC GBCTA1300055
    INDEX 01 00:00:00
FILE "07 The World We Knew.wav" WAVE
  TRACK 07 AUDIO
    TITLE "The World We Knew"
    PERFORMER "Daughtry"
    ISRC GBCTA1300131
    INDEX 01 00:00:00
FILE "08 High Above The Ground.wav" WAVE
  TRACK 08 AUDIO
    TITLE "High Above The Ground"
    PERFORMER "Daughtry"
    ISRC GBCTA1300132
    INDEX 01 00:00:00
FILE "09 Broken Arrows.wav" WAVE
  TRACK 09 AUDIO
    TITLE "Broken Arrows"
    PERFORMER "Daughtry"
    ISRC GBCTA1300133
    INDEX 01 00:00:00
FILE "10 Witness.wav" WAVE
  TRACK 10 AUDIO
    TITLE "Witness"
    PERFORMER "Daughtry"
    ISRC GBCTA1300134
    INDEX 01 00:00:00
FILE "11 Traitor.wav" WAVE
  TRACK 11 AUDIO
    TITLE "Traitor"
    PERFORMER "Daughtry"
    ISRC GBCTA1300135
    INDEX 01 00:00:00
  TRACK 12 AUDIO
    TITLE "18 Years"
    PERFORMER "Daughtry"
    ISRC GBCTA1300136
    INDEX 00 03:02:50
FILE "12 18 Years.wav" WAVE
    INDEX 01 00:00:00
FILE "13 Undefeated.wav" WAVE
  TRACK 13 AUDIO
    TITLE "Undefeated"
    PERFORMER "Daughtry"
    ISRC GBCTA1300140
    INDEX 01 00:00:00
FILE "14 Cinderella.wav" WAVE
  TRACK 14 AUDIO
    TITLE "Cinderella"
    PERFORMER "Daughtry"
    ISRC GBCTA1300137
    INDEX 01 00:00:00
FILE "15 Battleships [Acoustic].wav" WAVE
  TRACK 15 AUDIO
    TITLE "Battleships [Acoustic]"
    PERFORMER "Daughtry"
    ISRC GBCTA1300139
    INDEX 01 00:00:00

Код:
Код:
-----------------------

DON'T MODIFY THIS FILE

-----------------------

PERFORMER: auCDtect Task Manager, ver. 1.6.0 RC1 build 1.6.0.1
Copyright (c) 2008-2010 y-soft. All rights reserved
http:/y-soft.org

ANALYZER: auCDtect: CD records authenticity detector, version 0.8.2
Copyright (c) 2004 Oleg Berngardt. All rights reserved.
Copyright (c) 2004 Alexander Djourik. All rights reserved.

FILE: 15 Battleships [Acoustic].flac
  Size: 26851105 Hash: 94BAF19010DA22AFBCC517E0510979D9 Accuracy: -m0
  Conclusion: CDDA 100%
  Signature: ACF79901A32D5A518F8337471B1CEFA1EBC42595
FILE: 14 Cinderella.flac
  Size: 21912599 Hash: D6CA913AC78954D01DFAF23B093317F9 Accuracy: -m0
  Conclusion: CDDA 100%
  Signature: 9177C66E32877B9C87B75D8CAD04C0DD47DC3652
FILE: 13 Undefeated.flac
  Size: 26959634 Hash: 4716D1D948CC2DDA7EED8FED188B4E8C Accuracy: -m0
  Conclusion: CDDA 99%
  Signature: DB8620025B43EDC2AA46CA0956B33BDA995A8005
FILE: 12 18 Years.flac
  Size: 35255566 Hash: F528FA8607452688DC9909A2C803D4AA Accuracy: -m0
  Conclusion: CDDA 100%
  Signature: 0067A45C6D5C1287694C944C5C9114E056B5985A
FILE: 11 Traitor.flac
  Size: 22953017 Hash: BFB63486A353910BA5B7BE0456D86D93 Accuracy: -m0
  Conclusion: CDDA 100%
  Signature: E42BE083F442A518CF63B4120955FCF81819BC1A
FILE: 10 Witness.flac
  Size: 33351558 Hash: 8C05B511A168C0FC8FFF3F85F9EE79B7 Accuracy: -m0
  Conclusion: CDDA 100%
  Signature: B56FAC411DB64EE53E3DA3F18E82B8583BFC24D4
FILE: 09 Broken Arrows.flac
  Size: 28486955 Hash: 37DE46D92EAF92B61DB01480198F3373 Accuracy: -m0
  Conclusion: CDDA 100%
  Signature: BA16048F4660B5771C53950E3089E01B326391D4
FILE: 08 High Above The Ground.flac
  Size: 24570858 Hash: 89BC8EE76407F55771747FF607A3C98D Accuracy: -m0
  Conclusion: CDDA 100%
  Signature: A3D231985310661EFD3A0208FFB74F4B8B4DFA4C
FILE: 07 The World We Knew.flac
  Size: 29490813 Hash: CE656B8303BE41B2A52201405E1B1F6F Accuracy: -m0
  Conclusion: CDDA 100%
  Signature: A90DFB9409CB0A6E561E724AC1BA0EC53FF05755
FILE: 06 Long Live Rock & Roll.flac
  Size: 28683201 Hash: BC868730623E01C762F6EFC7BCF0500A Accuracy: -m0
  Conclusion: CDDA 100%
  Signature: 9CB42D459CF6F1406B7FFF034A439EE0F2E21849
FILE: 05 Wild Heart.flac
  Size: 28338052 Hash: 45EF6039512B289D39CB98B0DA460E09 Accuracy: -m0
  Conclusion: CDDA 100%
  Signature: A2E3F68EA30AD05C035F902C6A3A3A559E538C5D
FILE: 04 I'll Fight.flac
  Size: 25016633 Hash: 95F84E53F73ABCEF61FD78ADBDF1D12F Accuracy: -m0
  Conclusion: CDDA 100%
  Signature: 8BC3F1A321B6FC2EE436A6FA627DB7FA6E1FC5F5
FILE: 03 Battleships.flac
  Size: 30926553 Hash: 5B3ADF2EDB5906E9111F28BE8AA8AD4C Accuracy: -m0
  Conclusion: CDDA 100%
  Signature: 1AB23F0DD28003F9E13BB07445E6FA4A87BD382E
FILE: 02 Waiting For Superman.flac
  Size: 33857998 Hash: 2022E420F17911EA8AC3DA4F0EE0A61D Accuracy: -m0
  Conclusion: CDDA 100%
  Signature: D04404C94C5D79C5A947C0049B52CEAC1D86081E
FILE: 01 Baptized.flac
  Size: 23931268 Hash: 00B8730B4F873C33B4C2C688B4478966 Accuracy: -m0
  Conclusion: CDDA 100%
  Signature: 416D641EA387AFDD9282A43D069BF08225301D9D
Правила, инструкции, FAQ!!!
Торрент  Добавлен [16 мар 2014, 00:40] Скачать торрент Магнет ссылка
Скачать торрент
[ Размер 33.99 КБ / Просмотров 49 ]

Статус  
 
Размер  401.69 МБ
Приватный: Нет (DHT включён)
.torrent скачан  1
 


     Отправить личное сообщение
   
Страница 1 из 1
Показать сообщения за:  Поле сортировки  
Начать новую тему Ответить на тему


Сейчас этот форум просматривают: нет зарегистрированных пользователей и гости: 0


Вы не можете начинать темы
Вы не можете отвечать на сообщения
Вы не можете редактировать свои сообщения
Вы не можете удалять свои сообщения
Вы не можете добавлять вложения

Перейти:  
cron