Начать новую тему Ответить на тему
Статистика раздачи
Размер: 433.07 МБ | Добавлен: 05 дек 2013, 10:35 | Скачали: 0
Сидеров: 1  [0 байт/сек]    Личеров: 0  [0 байт/сек]
Пред. тема | След. тема 

Автор
Сообщение

СообщениеДобавлено: 05 дек 2013, 10:35 

Ответить с цитатой 

Daturana - Ghosts In The Flowers (2009)

Страна: Германия
Год: 2009
Жанр: Psychedelic/Blues/Progressive Rock
Издание: Nasoni Records / NASONI086-2 CD

Треклист:
01. Ghosts In The Flowers (10:00)
02. Follow Me (Into The Sky) (4:17)
03. Sorrow (4:30)
04. Intensive (6:12)
05. Travel In Car (3:13)
06. Tanha (7:46)
07. Sister (5:24)
08. Mysterious Day (6:12)
09. Now I'm In (3:04)
10. Thing-Swing (5:32)
11. Can't See My Baby (13:00)

Прослушать в mp3:
Tanha
Can't See My Baby

Продолжительность: 01:09:10
Кодек: WavPack
Тип рипа: image + .cue
Коврики: полный комплект
DATURANA была основана весной 2003 года на севере земли Гессен (Hessen). Начинала как кавер-группа психоделический рока. Состоит из пяти членов в возрасте между 20 и 38, объединившихся в собственном особом ощущении музыки.
По прошествии нескольких лет под влиянием the Doors и Pink Floyd, они начали сочинять собственную музыку, стиль который представляет собой смесь психоделии, рока и блюза.
Дебютный альбом DATURANA, названный "Ghosts In The Flowers" имеет собственное органичное звучание. Барабаны, бас, гитара, Хаммонд, клавишные, синтезаторные эффекты и вокал открывают двери в иные музыкальные сферы.
В стихах, вдохновлённых личным опытом музыкантов, переплетены любовь, боль и личные утраты. В большинстве текстов лирический герой оказывается в путешествии, окрашеном причудливыми атмосферныеми изменениями между реальностью и мечтой.
Код:
Код:
Exact Audio Copy V1.0 beta 1 from 15. November 2010

EAC extraction logfile from 6. January 2011, 13:15

Daturana / Ghosts In The Flowers

Used drive  : HL-DT-STDVDRAM GH22NS50   Adapter: 1  ID: 0

Read mode               : Secure
Utilize accurate stream : Yes
Defeat audio cache      : Yes
Make use of C2 pointers : No

Read offset correction                      : 667
Overread into Lead-In and Lead-Out          : No
Fill up missing offset samples with silence : Yes
Delete leading and trailing silent blocks   : No
Null samples used in CRC calculations       : Yes
Used interface                              : Installed external ASPI interface

Used output format              : Benutzerdefinierter Komprimierer
Selected bitrate                : 1024 kBit/s
Quality                         : High
Add ID3 tag                     : No
Command line compressor         : C:\Program Files (x86)\wavpack\wavpack.exe
Additional command line options : -hm -w "Year=%y" -w "Genre=%m" %s %d

TOC of the extracted CD

     Track |   Start  |  Length  | Start sector | End sector
    ---------------------------------------------------------
        1  |  0:00.00 | 10:00.12 |         0    |    45011
        2  | 10:00.12 |  4:17.06 |     45012    |    64292
        3  | 14:17.18 |  4:30.01 |     64293    |    84543
        4  | 18:47.19 |  6:11.60 |     84544    |   112428
        5  | 24:59.04 |  3:12.71 |    112429    |   126899
        6  | 28:12.00 |  7:45.69 |    126900    |   161843
        7  | 35:57.69 |  5:23.66 |    161844    |   186134
        8  | 41:21.60 |  6:12.17 |    186135    |   214051
        9  | 47:34.02 |  3:04.00 |    214052    |   227851
       10  | 50:38.02 |  5:32.33 |    227852    |   252784
       11  | 56:10.35 | 12:59.40 |    252785    |   311249

Range status and errors

Selected range

     Filename M:\D\Daturana\Ghosts In The Flowers\LossLess\Daturana - Ghosts In The Flowers.wav

     Peak level 98.8 %
     Extraction speed 0.3 X
     Range quality 99.9 %
     Test CRC EF7BA9E7
     Copy CRC EF7BA9E7
     Copy OK

No errors occurred

AccurateRip summary

Track  1  accurately ripped (confidence 1)  [19B7B5B8]
Track  2  accurately ripped (confidence 1)  [64249888]
Track  3  accurately ripped (confidence 1)  [4791CD72]
Track  4  accurately ripped (confidence 1)  [45CDB1FA]
Track  5  accurately ripped (confidence 1)  [A79F5248]
Track  6  accurately ripped (confidence 1)  [F8F85529]
Track  7  accurately ripped (confidence 1)  [BFFBCB0E]
Track  8  accurately ripped (confidence 1)  [8A50C2BF]
Track  9  accurately ripped (confidence 1)  [275CDC6C]
Track 10  accurately ripped (confidence 1)  [AAA6A553]
Track 11  accurately ripped (confidence 1)  [0E021CC6]

All tracks accurately ripped

End of status report

==== Log checksum 51DA2F8C5AC5738E51F704290B8E428DCC5E345C90C507151E4E68D2CA8E34EF ====
Код:
Код:
REM GENRE Psychedelic-Blues-Rock
REM DATE 2009
REM DISCID 9510360B
REM COMMENT "ExactAudioCopy v1.0b1"
PERFORMER "Daturana"
TITLE "Ghosts In The Flowers"
FILE "Daturana - Ghosts In The Flowers.wv" WAVE
  TRACK 01 AUDIO
    TITLE "Ghosts In The Flowers"
    PERFORMER "Daturana"
    FLAGS DCP
    INDEX 01 00:00:00
  TRACK 02 AUDIO
    TITLE "Follow Me (Into The Sky)"
    PERFORMER "Daturana"
    FLAGS DCP
    INDEX 00 09:58:12
    INDEX 01 10:00:12
  TRACK 03 AUDIO
    TITLE "Sorrow"
    PERFORMER "Daturana"
    FLAGS DCP
    INDEX 00 14:15:18
    INDEX 01 14:17:18
  TRACK 04 AUDIO
    TITLE "Intensive"
    PERFORMER "Daturana"
    FLAGS DCP
    INDEX 00 18:45:20
    INDEX 01 18:47:19
  TRACK 05 AUDIO
    TITLE "Travel In Car"
    PERFORMER "Daturana"
    FLAGS DCP
    INDEX 00 24:57:04
    INDEX 01 24:59:04
  TRACK 06 AUDIO
    TITLE "Tanha"
    PERFORMER "Daturana"
    FLAGS DCP
    INDEX 00 28:09:73
    INDEX 01 28:12:00
  TRACK 07 AUDIO
    TITLE "Sister"
    PERFORMER "Daturana"
    FLAGS DCP
    INDEX 00 35:55:69
    INDEX 01 35:57:69
  TRACK 08 AUDIO
    TITLE "Mysterious Day"
    PERFORMER "Daturana"
    FLAGS DCP
    INDEX 00 41:19:60
    INDEX 01 41:21:60
  TRACK 09 AUDIO
    TITLE "Now I'm In"
    PERFORMER "Daturana"
    FLAGS DCP
    INDEX 00 47:32:02
    INDEX 01 47:34:02
  TRACK 10 AUDIO
    TITLE "Thing-Swing"
    PERFORMER "Daturana"
    FLAGS DCP
    INDEX 00 50:36:02
    INDEX 01 50:38:02
  TRACK 11 AUDIO
    TITLE "Can't See My Baby"
    PERFORMER "Daturana"
    FLAGS DCP
    INDEX 00 56:08:35
    INDEX 01 56:10:35
Код:
Код:
-----------------------

DON'T MODIFY THIS FILE

-----------------------

PERFORMER: auCDtect Task Manager, ver. 1.5.1RC3 build 1.5.1.4
Copyright (c) 2008-2010 y-soft. All rights reserved
http:/y-soft.org

ANALYZER: auCDtect: CD records authenticity detector, version 0.8.2
Copyright (c) 2004 Oleg Berngardt. All rights reserved.
Copyright (c) 2004 Alexander Djourik. All rights reserved.

FILE: Daturana - Ghosts In The Flowers.wv
  Size: 409451017 Hash: 22ABDA1A0F1DE7EBEA4148D044475F3F Accuracy: -m0
  Conclusion: CDDA 99%
  Signature: 6A43DBA4F1C9C7B456D045FBC680718C367641F3
Правила, инструкции, FAQ!!!
Торрент  Добавлен [05 дек 2013, 10:35] Скачать торрент Магнет ссылка
Скачать торрент
[ Размер 18.52 КБ / Просмотров 17 ]

Статус  
 
Размер  433.07 МБ
Приватный: Нет (DHT включён)
.torrent скачан  0
 


     Отправить личное сообщение
   
Страница 1 из 1
Показать сообщения за:  Поле сортировки  
Начать новую тему Ответить на тему


Сейчас этот форум просматривают: нет зарегистрированных пользователей и гости: 0


Вы не можете начинать темы
Вы не можете отвечать на сообщения
Вы не можете редактировать свои сообщения
Вы не можете удалять свои сообщения
Вы не можете добавлять вложения

Перейти:  
cron