Начать новую тему Ответить на тему
Статистика раздачи
Размер: 861.77 МБ | Добавлен: 16 мар 2014, 00:13 | Скачали: 0
Сидеров: 1  [0 байт/сек]    Личеров: 3  [0 байт/сек]
Пред. тема | След. тема 

Автор
Сообщение

СообщениеДобавлено: 16 мар 2014, 00:13 

Ответить с цитатой 

Darryl Way's Wolf - 3 Albums (1973-1974) SHM-CD /2008 Remaster

Жанр: Jazz Rock/Fusion/Art-Rock/Prog Rock
Страна: UK
Год: 1973-1974
Remaster: 2008
Страна производитель диска: Japan
Label: Universal Music (Rock Legend Series)
Аудио кодек: APE
Тип рипа: image+.cue
Битрейт аудио: lossless
Продолжительность: 02:06:56
Scans: в раздаче
Источник-релизер: sheloshim (оригинал SHM-CD)

Известный британский скрипач и пианист Darryl Way был одним из основателей “Curved Air”. После первого ухода из этой группы, он организовал новый проект “Wolf” (более известный как “Darryl Way's Wolf”). В 1973 году группа выпустила два альбома “Canis Lupus” и “Saturation Point”, которые продюсировал музыкант “King Crimson” Ian McDonald.
Эти альбомы - идеальный вариант британского прогрессив-рока, с отличными добавлениями скрипки, альта и клавишных. Кроме того, были выпущены синглы “Spring Fever”, “Five In The Morning” и “A Bunch Of Fives”. В 1974 году группу усилил известный вокалист John Hodkinson. Вскоре вышел альбом “Night Music”, считающийся лучшей работой группы.
В следующем году, связанный контрактными обязательствами, Darryl возобновил сотрудничество с “Curved Air” и группа распалась. Dek Messecar позже стал участником “Caravan”, John Etheridge - “Soft Machine”, Ian Mosley, поработав с “Steve Hackett's Вand”, перешел в “Marillion”, а Hodkinson стал участником трио “Rogue”.
    Personnel:
    Darryl Way - violin, viola, keyboards
    Dek Messecar - bass, vocals
    John Etheridge - guitar
    Ian Mosley - drums

#777
Canis-Lupus
Год: 1973
Catalog#: UICY-93826
Продолжительность: 00:44:15
Трек лист:
01. The Void (04:35)
Written-By – Way
02. Isolation Waltz (04:37)
Written-By – Way, Messecar
03. Go Down (04:45)
Written-By – Way, Messecar
04. Wolf (04:06)
Written-By – Way, Messecar Instrumental
05. Cadenza (04:48)
Written-By – Way, Mosley
06. Chanson Sans Paroles (06:28)
Piano, Tambourine (Tasty) – Ian McDonald
Written-By – Way, Etheridge
07. McDonald's Lament (07:10)
Written-By – Way, Messecar, Mosley, Etheridge
Bonus Tracks
08. Spring Fever (03:29)
Written-By – Way
09. Wolf (Single Version) (04:05)
Written-By – Way, Messecar
Код:
Код:
Exact Audio Copy V0.99 prebeta 4 from 23. January 2008

EAC extraction logfile from 18. March 2009, 10:36

Darryl Way's Wolf / Canis Lupus

Used drive  : TSSTcorpCD/DVDW SH-W162C   Adapter: 0  ID: 0

Read mode               : Secure
Utilize accurate stream : Yes
Defeat audio cache      : Yes
Make use of C2 pointers : No

Read offset correction                      : 6
Overread into Lead-In and Lead-Out          : No
Fill up missing offset samples with silence : Yes
Delete leading and trailing silent blocks   : No
Null samples used in CRC calculations       : Yes
Used interface                              : Installed external ASPI interface

Used output format : Internal WAV Routines
Sample format      : 44.100 Hz; 16 Bit; Stereo

TOC of the extracted CD

     Track |   Start  |  Length  | Start sector | End sector
    ---------------------------------------------------------
        1  |  0:00.00 |  4:36.12 |         0    |    20711
        2  |  4:36.12 |  4:40.58 |     20712    |    41769
        3  |  9:16.70 |  4:44.27 |     41770    |    63096
        4  | 14:01.22 |  4:10.24 |     63097    |    81870
        5  | 18:11.46 |  4:51.33 |     81871    |   103728
        6  | 23:03.04 |  6:29.25 |    103729    |   132928
        7  | 29:32.29 |  7:10.26 |    132929    |   165204
        8  | 36:42.55 |  3:30.17 |    165205    |   180971
        9  | 40:12.72 |  4:01.69 |    180972    |   199115

Range status and errors

Selected range

     Filename C:\Darryl Way's Wolf (1973) Canis Lupus\Darryl Way's Wolf - Canis Lupus.wav

     Peak level 99.8 %
     Range quality 99.9 %
     Copy CRC 38BA332F
     Copy OK

No errors occurred

End of status report
Код:
Код:
-----------------------

DON'T MODIFY THIS FILE

-----------------------

PERFORMER: auCDtect Task Manager, ver. 1.6.0 RC1 build 1.6.0.1
Copyright (c) 2008-2010 y-soft. All rights reserved
http:/y-soft.org

ANALYZER: auCDtect: CD records authenticity detector, version 0.8.2
Copyright (c) 2004 Oleg Berngardt. All rights reserved.
Copyright (c) 2004 Alexander Djourik. All rights reserved.

FILE: Darryl Way's Wolf - Canis Lupus.ape
  Size: 309822236 Hash: A54EC9429C994D95F955C94970DB6072 Accuracy: -m0
  Conclusion: CDDA 100%
  Signature: 5130329597B207D8A49EB03A396C930E67C23327
#777
Saturation Point
Год: 1973
Catalog#: UICY-93827
Продолжительность: 00:47:30
Трек лист:
01. The Ache (04:50)
02. Two Sisters (04:20)
03. Slow Rag (05:17)
04. Market Overture (03:38)
05. Game Of X (05:48)
06. Saturation Point (06:45)
07. Toy Symphony (07:16)
Bonus Tracks
08. A Bunch Of Fives (03:31)
09. Five In The Morning (02:40)
10. Two Sisters (Single Version) (03:21)
Код:
Код:
Exact Audio Copy V0.99 prebeta 4 from 23. January 2008

EAC extraction logfile from 19. March 2009, 10:23

Darryl Way's Wolf / Saturation Point [SHM-CD]

Used drive  : TSSTcorpCD/DVDW SH-W162C   Adapter: 0  ID: 0

Read mode               : Secure
Utilize accurate stream : Yes
Defeat audio cache      : Yes
Make use of C2 pointers : No

Read offset correction                      : 6
Overread into Lead-In and Lead-Out          : No
Fill up missing offset samples with silence : Yes
Delete leading and trailing silent blocks   : No
Null samples used in CRC calculations       : Yes
Used interface                              : Installed external ASPI interface

Used output format : Internal WAV Routines
Sample format      : 44.100 Hz; 16 Bit; Stereo

TOC of the extracted CD

     Track |   Start  |  Length  | Start sector | End sector
    ---------------------------------------------------------
        1  |  0:00.00 |  4:51.55 |         0    |    21879
        2  |  4:51.55 |  4:21.25 |     21880    |    41479
        3  |  9:13.05 |  5:18.69 |     41480    |    65398
        4  | 14:31.74 |  3:38.59 |     65399    |    81807
        5  | 18:10.58 |  5:48.67 |     81808    |   107974
        6  | 23:59.50 |  6:46.14 |    107975    |   138438
        7  | 30:45.64 |  7:14.39 |    138439    |   171027
        8  | 38:00.28 |  3:30.34 |    171028    |   186811
        9  | 41:30.62 |  2:40.01 |    186812    |   198812
       10  | 44:10.63 |  3:19.23 |    198813    |   213760

Range status and errors

Selected range

     Filename C:\Darryl Way's Wolf (1973) Saturation Point\Darryl Way's Wolf - Saturation Point [SHM-CD].wav

     Peak level 99.8 %
     Range quality 100.0 %
     Copy CRC 4F6E0D9C
     Copy OK

No errors occurred

End of status report
Код:
Код:
-----------------------

DON'T MODIFY THIS FILE

-----------------------

PERFORMER: auCDtect Task Manager, ver. 1.6.0 RC1 build 1.6.0.1
Copyright (c) 2008-2010 y-soft. All rights reserved
http:/y-soft.org

ANALYZER: auCDtect: CD records authenticity detector, version 0.8.2
Copyright (c) 2004 Oleg Berngardt. All rights reserved.
Copyright (c) 2004 Alexander Djourik. All rights reserved.

FILE: Darryl Way's Wolf - Saturation Point [SHM-CD].ape
  Size: 329618156 Hash: A1602DF55D5A5D89528F57B9CDD6A37C Accuracy: -m0
  Conclusion: CDDA 100%
  Signature: 64C823C01C07488BB3A69B15A538FA269F50E4CD
#777
Night Music
Год: 1974
Catalog#: UICY-93828
Продолжительность: 00:35:11
Трек лист:
01. The Envoy (06:34)
02. Black September (04:53)
03. Flat 2/55 (06:59)
04. Anteros (04:33)
05. We're Watching (05:14)
06. Steal The World (04:22)
07. Comerade Of The Nine (02:44)
Код:
Код:
Exact Audio Copy V0.99 prebeta 4 from 23. January 2008

EAC extraction logfile from 22. August 2009, 10:19

Darryl Way's Wolf / Night Music

Used drive  : TSSTcorpCD/DVDW SH-W162C   Adapter: 0  ID: 0

Read mode               : Secure
Utilize accurate stream : Yes
Defeat audio cache      : Yes
Make use of C2 pointers : No

Read offset correction                      : 6
Overread into Lead-In and Lead-Out          : No
Fill up missing offset samples with silence : Yes
Delete leading and trailing silent blocks   : No
Null samples used in CRC calculations       : Yes
Used interface                              : Installed external ASPI interface

Used output format : Internal WAV Routines
Sample format      : 44.100 Hz; 16 Bit; Stereo

TOC of the extracted CD

     Track |   Start  |  Length  | Start sector | End sector
    ---------------------------------------------------------
        1  |  0:00.00 |  6:33.09 |         0    |    29483
        2  |  6:33.09 |  4:51.10 |     29484    |    51318
        3  | 11:24.19 |  6:55.69 |     51319    |    82512
        4  | 18:20.13 |  4:30.54 |     82513    |   102816
        5  | 22:50.67 |  5:14.57 |    102817    |   126423
        6  | 28:05.49 |  4:22.12 |    126424    |   146085
        7  | 32:27.61 |  2:43.26 |    146086    |   158336

Range status and errors

Selected range

     Filename C:\Darryl Way's Wolf (1974) Night Music\Darryl Way's Wolf - Night Music.wav

     Peak level 99.9 %
     Range quality 100.0 %
     Copy CRC 4F6D348E
     Copy OK

No errors occurred

End of status report
Код:
Код:
-----------------------

DON'T MODIFY THIS FILE

-----------------------

PERFORMER: auCDtect Task Manager, ver. 1.6.0 RC1 build 1.6.0.1
Copyright (c) 2008-2010 y-soft. All rights reserved
http:/y-soft.org

ANALYZER: auCDtect: CD records authenticity detector, version 0.8.2
Copyright (c) 2004 Oleg Berngardt. All rights reserved.
Copyright (c) 2004 Alexander Djourik. All rights reserved.

FILE: Darryl Way's Wolf - Night Music.ape
  Size: 238779464 Hash: 99646E8F814732E66969379AC5C90C95 Accuracy: -m0
  Conclusion: CDDA 100%
  Signature: 08BD577D6A2E2CB9DF7BFA44C86B5762CFAAA657
Правила, инструкции, FAQ!!!
Торрент  Добавлен [16 мар 2014, 00:13] Скачать торрент Магнет ссылка
Скачать торрент
[ Размер 19.82 КБ / Просмотров 40 ]

Статус  
 
Размер  861.77 МБ
Приватный: Нет (DHT включён)
.torrent скачан  0
 


     Отправить личное сообщение
   
Страница 1 из 1
Показать сообщения за:  Поле сортировки  
Начать новую тему Ответить на тему


Сейчас этот форум просматривают: нет зарегистрированных пользователей и гости: 0


Вы не можете начинать темы
Вы не можете отвечать на сообщения
Вы не можете редактировать свои сообщения
Вы не можете удалять свои сообщения
Вы не можете добавлять вложения

Перейти:  
cron