Начать новую тему Ответить на тему
Статистика раздачи
Размер: 238.7 МБ | Добавлен: 01 апр 2019, 19:20 | Скачали: 1
Сидеров: 5  [0 байт/сек]    Личеров: 2  [0 байт/сек]
Пред. тема | След. тема 

Автор
Сообщение

СообщениеДобавлено: 01 апр 2019, 19:20 

Ответить с цитатой 

Danielle Lewis - Live Forever
Формат записи/Источник записи: [TR24][OF]
Наличие водяных знаков: Нет
Издание: EP
Год издания/переиздания диска: 2018
Жанр: Pop
Издатель (лейбл): Red Robin Records
Продолжительность: 22:17
Наличие сканов в содержимом раздачи: Только обложка альбома
Источник: WRZmusic
Магазин: qobuz.com
Треклист:
01. Lead Me To The Sea (2:55)
02. Hollywood Sunshine (2:43)
03. Pin Up Lady (3:47)
04. The Ace Of Hearts (3:19)
05. Live Forever (3:31)
06. Only Lust (3:35)
07. Wasted (2:26)
Singer-songwriter Danielle Lewis emerges from the shadows to give her hauntingly delicate vocals the exposure they deserve on this stunning mini-album. Newquay born and Cardiff based Danielle's goal for 'Live Forever' was clear. She wanted to create music that was honest and authentic, and yet she didn't want to be an artist who was afraid to explore and innovate. Welcome 'Live Forever', which so perfectly achieves these ambitions. Danielle's vocals hauntingly float around as though free from the confines of vocal range and breath control, traversing phrases with a delicacy rarely found in singers who possess vocal power as strong as she does. Super Furry Animals' Cian Ciaran is currently producing a remix of Danielle's title track 'Live Forever', and the amalgamation of Cian's psychedelic rock vibe and Danielle's make for an extremely exciting collaboration. The record in its entirety showcases a real versatility; no two songs sound the same owing to Danielle's extensive vocal range and ability to adapt to different musical styles easily. Produced by Secondson, this is a bewitchingly delicate debut.

Контейнер: FLAC (*.flac)
Тип рипа: tracks
Разрядность: 24/48
Формат: PCM
Количество каналов: 2.0
Код:
foobar2000 1.3.9 / Dynamic Range Meter 1.1.1
log date: 2018-07-19 10:12:27
--------------------------------------------------------------------------------
Analyzed: Danielle Lewis / Live Forever
--------------------------------------------------------------------------------
DR         Peak         RMS     Duration Track
--------------------------------------------------------------------------------
DR8        0.00 dB    -8.88 dB      2:55 01-Lead Me To The Sea
DR6       -1.00 dB    -8.91 dB      2:43 02-Hollywood Sunshine
DR7        0.00 dB    -9.36 dB      3:47 03-Pin Up Lady
DR7       -0.01 dB    -9.06 dB      3:19 04-The Ace Of Hearts
DR6       -0.41 dB    -8.39 dB      3:31 05-Live Forever
DR10       0.00 dB   -12.64 dB      3:35 06-Only Lust
DR9        0.00 dB   -13.57 dB      2:26 07-Wasted
--------------------------------------------------------------------------------
Number of tracks:  7
Official DR value: DR8
Samplerate:        48000 Hz
Channels:          2
Bits per sample:   24
Bitrate:           1446 kbps
Codec:             FLAC
================================================================================
 
Правила, инструкции, FAQ!!!
Торрент  Добавлен [01 апр 2019, 19:20] Скачать торрент Магнет ссылка
Скачать торрент
[ Размер 19.57 КБ / Просмотров 8 ]

Статус
Проверен 
 
Размер  238.7 МБ
Приватный: Нет (DHT включён)
.torrent скачан  1
 


     Отправить личное сообщение
   
Страница 1 из 1
Показать сообщения за:  Поле сортировки  
Начать новую тему Ответить на тему


Сейчас этот форум просматривают: нет зарегистрированных пользователей и гости: 0


Вы не можете начинать темы
Вы не можете отвечать на сообщения
Вы не можете редактировать свои сообщения
Вы не можете удалять свои сообщения
Вы не можете добавлять вложения

Перейти:  
cron
cron