Начать новую тему Ответить на тему
Статистика раздачи
Размер: 2.19 ГБ | Добавлен: 16 мар 2014, 00:21 | Скачали: 0
Сидеров: 2  [0 байт/сек]    Личеров: 15  [0 байт/сек]
Пред. тема | След. тема 

Автор
Сообщение

СообщениеДобавлено: 16 мар 2014, 00:21 

Ответить с цитатой 

Creedence Clearwater Revival – 10 CD Collection (1987)



Лейбл, каталог:Fantasy – FCD CCR-10-2
Формат:10 ×CD, Compilation Box Set
Страна:Germany
Год:1987
Жанр:Rock, Folk Rock, Country Rock
Продолжительность:06:07:53

Кодек: FLAC
Битрейт: Lossless

Треклист:
01. I Put A Spell On You [00:04:32]
02. The Working Man [00:03:02]
03. Suzie Q [00:08:35]
04. Ninety-Nine And A Half [00:03:36]
05. Get Down Woman [00:03:06]
06. Porterville [00:02:21]
07. Gloomy [00:03:50]
08. Walk On The Water [00:04:38]

Продолжительность: 00:32:55
Код:
Код:
Exact Audio Copy V0.99 prebeta 5 from 4. May 2009

Отчёт EAC об извлечении, выполненном 15. августа 2010, 17:43

Creedence Clearwater Revival / Creedence Clearwater Revival

Дисковод: ASUS    DRW-24B3ST   Adapter: 0  ID: 0

Режим чтения                 : Достоверность
Использование точного потока : Да
Отключение кэша аудио        : Да
Использование указателей C2  : Нет

Коррекция смещения при чтении                     : 6
Способность читать области Lead-in и Lead-out     : Нет
Заполнение пропущенных сэмплов тишиной            : Да
Удаление блоков с тишиной в начале и конце        : Нет
При вычислениях CRC использовались нулевые сэмплы : Да
Интерфейс                                         : Установленный внешний

ASPI-интерфейс

Выходной формат : Внутренние WAV-операции
Формат сэмплов  : 44.100 Гц; 16 бит; стерео

TOC извлечённого CD

     Трек |   Старт  | Длительность | Начальный сектор | Конечный сектор
    ---------------------------------------------------------------------
       1  |  0:00.00 |    4:32.27   |           0      |      20426
       2  |  4:32.27 |    3:04.60   |       20427      |      34286
       3  |  7:37.12 |    8:35.33   |       34287      |      72944
       4  | 16:12.45 |    3:38.52   |       72945      |      89346
       5  | 19:51.22 |    3:09.18   |       89347      |     103539
       6  | 23:00.40 |    2:24.25   |      103540      |     114364
       7  | 25:24.65 |    3:50.00   |      114365      |     131614
       8  | 29:14.65 |    4:38.25   |      131615      |     152489

Характеристики диапазона извлечения и сообщения об ошибках

Выбранный диапазон

     Имя файла E:\=Music EAC=\Creedence Clearwater Revival -10CD- Collection

(ZYX, Fantasy FCD CCR-10-2)\01-1968 -CCR\Creedence Clearwater Revival -

Creedence Clearwater Revival.wav

     Пиковый уровень 100.0 %
     Качество диапазона 100.0 %
     CRC теста E21A1118
     CRC копии E21A1118
     Копирование... OK

Ошибок не произошло

AccurateRip: сводка

Трек  1  точное извлечение (доверие 4)  [501FEC44]
Трек  2  точное извлечение (доверие 4)  [2B0B5CDB]
Трек  3  точное извлечение (доверие 4)  [59ACDE21]
Трек  4  точное извлечение (доверие 4)  [0FC69E67]
Трек  5  точное извлечение (доверие 4)  [1EFE3F1C]
Трек  6  точное извлечение (доверие 4)  [E0278E4C]
Трек  7  точное извлечение (доверие 4)  [5DAD214B]
Трек  8  точное извлечение (доверие 4)  [7B537AB5]

Все треки извлечены точно

Конец отчёта
Код:
Код:
-----------------------

DON'T MODIFY THIS FILE

-----------------------

PERFORMER: auCDtect Task Manager, ver. 1.5.1RC6 build 1.5.1.7
Copyright (c) 2008-2010 y-soft. All rights reserved
http:/y-soft.org

ANALYZER: auCDtect: CD records authenticity detector, version 0.8.2
Copyright (c) 2004 Oleg Berngardt. All rights reserved.
Copyright (c) 2004 Alexander Djourik. All rights reserved.

FILE: Creedence Clearwater Revival - Creedence Clearwater Revival.flac
  Size: 228286492 Hash: F8842B502D43C1F9A2AEE896D2B9E081 Accuracy: -m0
  Conclusion: CDDA 100%
  Signature: 77EB47A87AE88D838FF124AA369D137A1E13AC2A


01. Born On The Bayou [00:05:15]
02. Bootleg [00:03:01]
03. Graveyard Train [00:08:34]
04. Good Golly Miss Molly [00:02:40]
05. Penthouse Pauper [00:03:36]
06. Proud Mary [00:03:08]
07. Keep On Chooglin' [00:07:39]

Продолжительность: 00:33:42
Код:
Код:
Exact Audio Copy V0.99 prebeta 5 from 4. May 2009

Отчёт EAC об извлечении, выполненном 15. августа 2010, 18:05

Creedence Clearwater Revival / Bayou Country

Дисковод: ASUS    DRW-24B3ST   Adapter: 0  ID: 0

Режим чтения                 : Достоверность
Использование точного потока : Да
Отключение кэша аудио        : Да
Использование указателей C2  : Нет

Коррекция смещения при чтении                     : 6
Способность читать области Lead-in и Lead-out     : Нет
Заполнение пропущенных сэмплов тишиной            : Да
Удаление блоков с тишиной в начале и конце        : Нет
При вычислениях CRC использовались нулевые сэмплы : Да
Интерфейс                                         : Установленный внешний

ASPI-интерфейс

Выходной формат : Внутренние WAV-операции
Формат сэмплов  : 44.100 Гц; 16 бит; стерео

TOC извлечённого CD

     Трек |   Старт  | Длительность | Начальный сектор | Конечный сектор
    ---------------------------------------------------------------------
       1  |  0:00.00 |    5:15.12   |           0      |      23636
       2  |  5:15.12 |    3:01.70   |       23637      |      37281
       3  |  8:17.07 |    8:36.10   |       37282      |      75991
       4  | 16:53.17 |    2:44.03   |       75992      |      88294
       5  | 19:37.20 |    3:39.55   |       88295      |     104774
       6  | 23:17.00 |    3:08.32   |      104775      |     118906
       7  | 26:25.32 |    7:39.70   |      118907      |     153401

Характеристики диапазона извлечения и сообщения об ошибках

Выбранный диапазон

     Имя файла E:\=Music EAC=\Creedence Clearwater Revival -10CD- Collection

(ZYX, Fantasy FCD CCR-10-2)\02-1969 -Bayou Country\Creedence Clearwater

Revival - Bayou Country.wav

     Пиковый уровень 100.0 %
     Качество диапазона 100.0 %
     CRC теста 586F74F1
     CRC копии 586F74F1
     Копирование... OK

Ошибок не произошло

AccurateRip: сводка

Трек  1  точное извлечение (доверие 13)  [837E5C2D]
Трек  2  точное извлечение (доверие 12)  [00119836]
Трек  3  точное извлечение (доверие 12)  [68553917]
Трек  4  точное извлечение (доверие 13)  [5E21C43F]
Трек  5  точное извлечение (доверие 12)  [DD08F5CE]
Трек  6  точное извлечение (доверие 12)  [1FD30E76]
Трек  7  точное извлечение (доверие 13)  [530AAB78]

Все треки извлечены точно

Конец отчёта
Код:
Код:
-----------------------

DON'T MODIFY THIS FILE

-----------------------

PERFORMER: auCDtect Task Manager, ver. 1.5.1RC6 build 1.5.1.7
Copyright (c) 2008-2010 y-soft. All rights reserved
http:/y-soft.org

ANALYZER: auCDtect: CD records authenticity detector, version 0.8.2
Copyright (c) 2004 Oleg Berngardt. All rights reserved.
Copyright (c) 2004 Alexander Djourik. All rights reserved.

FILE: Creedence Clearwater Revival - Bayou Country.flac
  Size: 216367032 Hash: B9EADA97F27C6F24809A13C47622DAB7 Accuracy: -m0
  Conclusion: CDDA 100%
  Signature: C84010C2A2901EBB138D7F78D7BDFA01F1CAABCC


01. Green River [00:02:36]
02. Commotion [00:02:43]
03. Tombstone Shadow [00:03:39]
04. Wrote A Song For Everyone [00:04:56]
05. Bad Moon Rising [00:02:21]
06. Lodi [00:03:11]
07. Cross-Tie Walker [00:03:19]
08. Sinister Purpose [00:03:22]
09. The Night Time Is The Right Time [00:03:06]

Продолжительность: 00:28:47
Код:
Код:
Exact Audio Copy V0.99 prebeta 5 from 4. May 2009

Отчёт EAC об извлечении, выполненном 15. августа 2010, 18:24

Creedence Clearwater Revival / Green River

Дисковод: ASUS    DRW-24B3ST   Adapter: 0  ID: 0

Режим чтения                 : Достоверность
Использование точного потока : Да
Отключение кэша аудио        : Да
Использование указателей C2  : Нет

Коррекция смещения при чтении                     : 6
Способность читать области Lead-in и Lead-out     : Нет
Заполнение пропущенных сэмплов тишиной            : Да
Удаление блоков с тишиной в начале и конце        : Нет
При вычислениях CRC использовались нулевые сэмплы : Да
Интерфейс                                         : Установленный внешний

ASPI-интерфейс

Выходной формат : Внутренние WAV-операции
Формат сэмплов  : 44.100 Гц; 16 бит; стерео

TOC извлечённого CD

     Трек |   Старт  | Длительность | Начальный сектор | Конечный сектор
    ---------------------------------------------------------------------
       1  |  0:00.00 |    2:36.22   |           0      |      11721
       2  |  2:36.22 |    2:43.73   |       11722      |      24019
       3  |  5:20.20 |    3:39.57   |       24020      |      40501
       4  |  9:00.02 |    4:56.15   |       40502      |      62716
       5  | 13:56.17 |    2:21.38   |       62717      |      73329
       6  | 16:17.55 |    3:12.00   |       73330      |      87729
       7  | 19:29.55 |    3:19.27   |       87730      |     102681
       8  | 22:49.07 |    3:22.50   |      102682      |     117881
       9  | 26:11.57 |    3:06.45   |      117882      |     131876

Характеристики диапазона извлечения и сообщения об ошибках

Выбранный диапазон

     Имя файла E:\=Music EAC=\Creedence Clearwater Revival -10CD- Collection

(ZYX, Fantasy FCD CCR-10-2)\03-1969 -Green River\Creedence Clearwater Revival

- Green River.wav

     Пиковый уровень 100.0 %
     Качество диапазона 100.0 %
     CRC теста 529CF758
     CRC копии 529CF758
     Копирование... OK

Ошибок не произошло

AccurateRip: сводка

Трек  1  точное извлечение (доверие 16)  [77AB1250]
Трек  2  точное извлечение (доверие 16)  [62D333B8]
Трек  3  точное извлечение (доверие 16)  [09622EBC]
Трек  4  точное извлечение (доверие 17)  [0F0C2053]
Трек  5  точное извлечение (доверие 17)  [892775E9]
Трек  6  точное извлечение (доверие 17)  [08E0BC83]
Трек  7  точное извлечение (доверие 16)  [DBB3C5EC]
Трек  8  точное извлечение (доверие 16)  [C28729F5]
Трек  9  точное извлечение (доверие 15)  [32616BF3]

Все треки извлечены точно

Конец отчёта
Код:
Код:
-----------------------

DON'T MODIFY THIS FILE

-----------------------

PERFORMER: auCDtect Task Manager, ver. 1.5.1RC6 build 1.5.1.7
Copyright (c) 2008-2010 y-soft. All rights reserved
http:/y-soft.org

ANALYZER: auCDtect: CD records authenticity detector, version 0.8.2
Copyright (c) 2004 Oleg Berngardt. All rights reserved.
Copyright (c) 2004 Alexander Djourik. All rights reserved.

FILE: Creedence Clearwater Revival - Green River.flac
  Size: 179701393 Hash: CAF4973A5F5539918B33823FCA1C6BA7 Accuracy: -m0
  Conclusion: CDDA 100%
  Signature: 1B8C1C0E4390B0D565A20A6C9C748F0D6BE5E015


01. Down On The Corner [00:02:44]
02. It Came Out Of The Sky [00:02:55]
03. Cotton Fields [00:02:55]
04. Poorboy Shuffle [00:02:27]
05. Feelin' Blue [00:05:01]
06. Fortunate Son [00:02:19]
07. Don't Look Now [00:02:10]
08. The Midnight Special [00:04:12]
09. Side O' The Road [00:03:22]
10. Effigy [00:06:27]

Продолжительность: 00:34:31
Код:
Код:
Exact Audio Copy V0.99 prebeta 5 from 4. May 2009

Отчёт EAC об извлечении, выполненном 15. августа 2010, 18:47

Creedence Clearwater Revival / Willy And The Poorboys

Дисковод: ASUS    DRW-24B3ST   Adapter: 0  ID: 0

Режим чтения                 : Достоверность
Использование точного потока : Да
Отключение кэша аудио        : Да
Использование указателей C2  : Нет

Коррекция смещения при чтении                     : 6
Способность читать области Lead-in и Lead-out     : Нет
Заполнение пропущенных сэмплов тишиной            : Да
Удаление блоков с тишиной в начале и конце        : Нет
При вычислениях CRC использовались нулевые сэмплы : Да
Интерфейс                                         : Установленный внешний

ASPI-интерфейс

Выходной формат : Внутренние WAV-операции
Формат сэмплов  : 44.100 Гц; 16 бит; стерео

TOC извлечённого CD

     Трек |   Старт  | Длительность | Начальный сектор | Конечный сектор
    ---------------------------------------------------------------------
       1  |  0:00.00 |    2:48.32   |           0      |      12631
       2  |  2:48.32 |    2:57.33   |       12632      |      25939
       3  |  5:45.65 |    2:55.27   |       25940      |      39091
       4  |  8:41.17 |    2:27.15   |       39092      |      50131
       5  | 11:08.32 |    5:03.18   |       50132      |      72874
       6  | 16:11.50 |    2:21.70   |       72875      |      83519
       7  | 18:33.45 |    2:12.00   |       83520      |      93419
       8  | 20:45.45 |    4:14.67   |       93420      |     112536
       9  | 25:00.37 |    3:25.50   |      112537      |     127961
      10  | 28:26.12 |    6:27.73   |      127962      |     157059

Характеристики диапазона извлечения и сообщения об ошибках

Выбранный диапазон

     Имя файла E:\=Music EAC=\Creedence Clearwater Revival -10CD- Collection

(ZYX, Fantasy FCD CCR-10-2)\04-1969 -Willy And The Poor Boys\Creedence

Clearwater Revival - Willy And The Poorboys.wav

     Пиковый уровень 100.0 %
     Качество диапазона 99.9 %
     CRC теста C7AA22C9
     CRC копии C7AA22C9
     Копирование... OK

Ошибок не произошло

AccurateRip: сводка

Трек  1  точное извлечение (доверие 13)  [91711EB7]
Трек  2  точное извлечение (доверие 13)  [6AA02EC8]
Трек  3  точное извлечение (доверие 12)  [85415CEF]
Трек  4  точное извлечение (доверие 12)  [7C895B32]
Трек  5  точное извлечение (доверие 12)  [BA0B9EF8]
Трек  6  точное извлечение (доверие 13)  [950DDE9D]
Трек  7  точное извлечение (доверие 13)  [22A26536]
Трек  8  точное извлечение (доверие 13)  [C0198093]
Трек  9  точное извлечение (доверие 12)  [236ACBD8]
Трек 10  точное извлечение (доверие 12)  [D5611A60]

Все треки извлечены точно

Конец отчёта
Код:
Код:
-----------------------

DON'T MODIFY THIS FILE

-----------------------

PERFORMER: auCDtect Task Manager, ver. 1.5.1RC6 build 1.5.1.7
Copyright (c) 2008-2010 y-soft. All rights reserved
http:/y-soft.org

ANALYZER: auCDtect: CD records authenticity detector, version 0.8.2
Copyright (c) 2004 Oleg Berngardt. All rights reserved.
Copyright (c) 2004 Alexander Djourik. All rights reserved.

FILE: Creedence Clearwater Revival - Willy And The Poorboys.flac
  Size: 216424834 Hash: 6378E73C668EB910EB24B1D15DB891BE Accuracy: -m0
  Conclusion: CDDA 100%
  Signature: 0D970E9C980B58305038D1CCE9EBDDB8AB7630A2


01. Ramble Tamble [00:07:11]
02. Before You Accuse Me [00:03:26]
03. Travelin' Band [00:02:08]
04. Ooby Dooby [00:02:07]
05. Lookin' Out My Back Door [00:02:33]
06. Run Through The Jungle [00:03:09]
07. Up Around The Bend [00:02:43]
08. My Baby Left Me [00:02:19]
09. Who'll Stop The Rain [00:02:29]
10. I Heard It Through The Grapevine [00:11:06]
11. Long As I Can See The Light [00:03:35]

Продолжительность: 00:42:38
Код:
Код:
Exact Audio Copy V0.99 prebeta 5 from 4. May 2009

Отчёт EAC об извлечении, выполненном 15. августа 2010, 22:27

Creedence Clearwater Revival / Cosmo's Factory

Дисковод: ASUS    DRW-24B3ST   Adapter: 0  ID: 0

Режим чтения                 : Достоверность
Использование точного потока : Да
Отключение кэша аудио        : Да
Использование указателей C2  : Нет

Коррекция смещения при чтении                     : 6
Способность читать области Lead-in и Lead-out     : Нет
Заполнение пропущенных сэмплов тишиной            : Да
Удаление блоков с тишиной в начале и конце        : Нет
При вычислениях CRC использовались нулевые сэмплы : Да
Интерфейс                                         : Установленный внешний

ASPI-интерфейс

Выходной формат : Внутренние WAV-операции
Формат сэмплов  : 44.100 Гц; 16 бит; стерео

TOC извлечённого CD

     Трек |   Старт  | Длительность | Начальный сектор | Конечный сектор
    ---------------------------------------------------------------------
       1  |  0:00.00 |    7:11.05   |           0      |      32329
       2  |  7:11.05 |    3:27.00   |       32330      |      47854
       3  | 10:38.05 |    2:08.20   |       47855      |      57474
       4  | 12:46.25 |    2:07.35   |       57475      |      67034
       5  | 14:53.60 |    2:33.50   |       67035      |      78559
       6  | 17:27.35 |    3:09.72   |       78560      |      92806
       7  | 20:37.32 |    2:43.50   |       92807      |     105081
       8  | 23:21.07 |    2:19.03   |      105082      |     115509
       9  | 25:40.10 |    2:29.42   |      115510      |     126726
      10  | 28:09.52 |   11:06.25   |      126727      |     176701
      11  | 39:16.02 |    3:35.05   |      176702      |     192831

Характеристики диапазона извлечения и сообщения об ошибках

Выбранный диапазон

     Имя файла E:\=Music EAC=\Creedence Clearwater Revival -10CD- Collection

(ZYX, Fantasy FCD CCR-10-2)\05-1970 -Cosmo's Factory\Creedence Clearwater

Revival - Cosmo's Factory.wav

     Пиковый уровень 100.0 %
     Качество диапазона 99.9 %
     CRC теста E74118F5
     CRC копии E74118F5
     Копирование... OK

Ошибок не произошло

AccurateRip: сводка

Трек  1  точное извлечение (доверие 10)  [AEE73134]
Трек  2  точное извлечение (доверие 10)  [34D9ADC7]
Трек  3  точное извлечение (доверие 10)  [C465B902]
Трек  4  точное извлечение (доверие 10)  [7962F6DA]
Трек  5  точное извлечение (доверие 10)  [8A84331D]
Трек  6  точное извлечение (доверие 10)  [2A6C973C]
Трек  7  точное извлечение (доверие 10)  [76C210E0]
Трек  8  точное извлечение (доверие 10)  [D249340E]
Трек  9  точное извлечение (доверие 10)  [297E728A]
Трек 10  точное извлечение (доверие 10)  [3A2BB5B3]
Трек 11  точное извлечение (доверие 10)  [0C3152D0]

Все треки извлечены точно

Конец отчёта
Код:
Код:
-----------------------

DON'T MODIFY THIS FILE

-----------------------

PERFORMER: auCDtect Task Manager, ver. 1.5.1RC6 build 1.5.1.7
Copyright (c) 2008-2010 y-soft. All rights reserved
http:/y-soft.org

ANALYZER: auCDtect: CD records authenticity detector, version 0.8.2
Copyright (c) 2004 Oleg Berngardt. All rights reserved.
Copyright (c) 2004 Alexander Djourik. All rights reserved.

FILE: Creedence Clearwater Revival - Cosmo's Factory.flac
  Size: 283886008 Hash: 128B61D7DAA6E674A5757934C7F84C3B Accuracy: -m0
  Conclusion: CDDA 100%
  Signature: D7DD3A505AB4FC5384A023B793018D81FA3ABD11


01. Pagan Baby [00:06:22]
02. Sailor's Lament [00:03:47]
03. Chameleon [00:03:17]
04. Have You Ever Seen The Rain? [00:02:38]
05. (Wish I Could) Hideaway [00:03:43]
06. Born To Move [00:05:39]
07. Hey Tonight [00:02:43]
08. It's Just A Thought [00:03:57]
09. Molina [00:02:42]
10. Rude Awakening #2 [00:06:23]

Продолжительность: 00:40:56
Код:
Код:
Exact Audio Copy V0.99 prebeta 5 from 4. May 2009

Отчёт EAC об извлечении, выполненном 16. августа 2010, 10:30

Creedence Clearwater Revival / Pendulum

Дисковод: ASUS    DRW-24B3ST   Adapter: 0  ID: 0

Режим чтения                 : Достоверность
Использование точного потока : Да
Отключение кэша аудио        : Да
Использование указателей C2  : Нет

Коррекция смещения при чтении                     : 6
Способность читать области Lead-in и Lead-out     : Нет
Заполнение пропущенных сэмплов тишиной            : Да
Удаление блоков с тишиной в начале и конце        : Нет
При вычислениях CRC использовались нулевые сэмплы : Да
Интерфейс                                         : Установленный внешний

ASPI-интерфейс

Выходной формат : Внутренние WAV-операции
Формат сэмплов  : 44.100 Гц; 16 бит; стерео

TOC извлечённого CD

     Трек |   Старт  | Длительность | Начальный сектор | Конечный сектор
    ---------------------------------------------------------------------
       1  |  0:00.00 |    6:25.22   |           0      |      28896
       2  |  6:25.22 |    3:51.28   |       28897      |      46249
       3  | 10:16.50 |    3:19.40   |       46250      |      61214
       4  | 13:36.15 |    2:40.60   |       61215      |      73274
       5  | 16:17.00 |    3:46.17   |       73275      |      90241
       6  | 20:03.17 |    5:41.08   |       90242      |     115824
       7  | 25:44.25 |    2:46.35   |      115825      |     128309
       8  | 28:30.60 |    3:57.10   |      128310      |     146094
       9  | 32:27.70 |    2:45.10   |      146095      |     158479
      10  | 35:13.05 |    6:23.20   |      158480      |     187224

Характеристики диапазона извлечения и сообщения об ошибках

Выбранный диапазон

     Имя файла E:\=Music EAC=\Creedence Clearwater Revival -10CD- Collection

(ZYX, Fantasy FCD CCR-10-2)\06-1970 -Pendulum\Creedence Clearwater Revival -

Pendulum.wav

     Пиковый уровень 100.0 %
     Качество диапазона 99.9 %
     CRC теста E244BA75
     CRC копии E244BA75
     Копирование... OK

Ошибок не произошло

AccurateRip: сводка

Трек  1  точное извлечение (доверие 20)  [8D5F964A]
Трек  2  точное извлечение (доверие 21)  [AF585834]
Трек  3  точное извлечение (доверие 22)  [633AABD7]
Трек  4  точное извлечение (доверие 20)  [90FBEC0F]
Трек  5  точное извлечение (доверие 21)  [4042BF4A]
Трек  6  точное извлечение (доверие 21)  [557DCAC2]
Трек  7  точное извлечение (доверие 22)  [5D459D57]
Трек  8  точное извлечение (доверие 21)  [AF360D99]
Трек  9  точное извлечение (доверие 22)  [275F9811]
Трек 10  точное извлечение (доверие 19)  [1259486E]

Все треки извлечены точно

Конец отчёта
Код:
Код:
-----------------------

DON'T MODIFY THIS FILE

-----------------------

PERFORMER: auCDtect Task Manager, ver. 1.5.1RC6 build 1.5.1.7
Copyright (c) 2008-2010 y-soft. All rights reserved
http:/y-soft.org

ANALYZER: auCDtect: CD records authenticity detector, version 0.8.2
Copyright (c) 2004 Oleg Berngardt. All rights reserved.
Copyright (c) 2004 Alexander Djourik. All rights reserved.

FILE: Creedence Clearwater Revival - Pendulum.flac
  Size: 261244069 Hash: 34B7D4D4FEA0B47527D726BED53CF2C9 Accuracy: -m0
  Conclusion: CDDA 100%
  Signature: 63D0C2D725B26EEAA700A98DADFF1F8E5636B7BD


01. Lookin' For A Reason [00:03:25]
02. Don't Look Now [00:02:11]
03. Lodi [00:03:12]
04. My Baby Left Me [00:02:19]
05. Hello Mary Lou [00:02:13]
06. Ramble Tamble [00:07:12]
07. Cotton Fields [00:02:56]
08. Before You Accuse Me [00:03:24]
09. Wrote A Song For Everyone [00:04:54]
10. Ooby Dooby [00:02:05]
11. Cross Tie Walker [00:03:18]
12. Lookin' Out My Backdoor [00:02:32]

Продолжительность: 00:39:23
Код:
Код:
Exact Audio Copy V0.99 prebeta 5 from 4. May 2009

Отчёт EAC об извлечении, выполненном 15. августа 2010, 21:04

Creedence Clearwater Revival / Creedence Country

Дисковод: ASUS    DRW-24B3ST   Adapter: 0  ID: 0

Режим чтения                 : Достоверность
Использование точного потока : Да
Отключение кэша аудио        : Да
Использование указателей C2  : Нет

Коррекция смещения при чтении                     : 6
Способность читать области Lead-in и Lead-out     : Нет
Заполнение пропущенных сэмплов тишиной            : Да
Удаление блоков с тишиной в начале и конце        : Нет
При вычислениях CRC использовались нулевые сэмплы : Да
Интерфейс                                         : Установленный внешний

ASPI-интерфейс

Выходной формат : Внутренние WAV-операции
Формат сэмплов  : 44.100 Гц; 16 бит; стерео

TOC извлечённого CD

     Трек |   Старт  | Длительность | Начальный сектор | Конечный сектор
    ---------------------------------------------------------------------
       1  |  0:00.00 |    3:27.45   |           0      |      15569
       2  |  3:27.45 |    2:11.20   |       15570      |      25414
       3  |  5:38.65 |    3:12.17   |       25415      |      39831
       4  |  8:51.07 |    2:19.23   |       39832      |      50279
       5  | 11:10.30 |    2:13.22   |       50280      |      60276
       6  | 13:23.52 |    7:12.08   |       60277      |      92684
       7  | 20:35.60 |    2:56.27   |       92685      |     105911
       8  | 23:32.12 |    3:26.60   |      105912      |     121421
       9  | 26:58.72 |    4:56.73   |      121422      |     143694
      10  | 31:55.70 |    2:08.25   |      143695      |     153319
      11  | 34:04.20 |    3:18.25   |      153320      |     168194
      12  | 37:22.45 |    2:32.27   |      168195      |     179621

Характеристики диапазона извлечения и сообщения об ошибках

Выбранный диапазон

     Имя файла E:\=Music EAC=\Creedence Clearwater Revival -10CD- Collection

(ZYX, Fantasy FCD CCR-10-2)\07-1969 -Creedence Country\Creedence Clearwater

Revival - Creedence Country.wav

     Пиковый уровень 80.9 %
     Качество диапазона 100.0 %
     CRC теста 9493871F
     CRC копии 9493871F
     Копирование... OK

Ошибок не произошло

AccurateRip: сводка

Трек  1  точное извлечение (доверие 7)  [9FD04E5B]
Трек  2  точное извлечение (доверие 6)  [D814E01E]
Трек  3  точное извлечение (доверие 7)  [EB862B06]
Трек  4  точное извлечение (доверие 7)  [E8D4CC4A]
Трек  5  точное извлечение (доверие 7)  [A1268265]
Трек  6  точное извлечение (доверие 7)  [ACE9F5F1]
Трек  7  точное извлечение (доверие 7)  [070CF3C9]
Трек  8  точное извлечение (доверие 7)  [BFF14023]
Трек  9  точное извлечение (доверие 7)  [3F24357A]
Трек 10  точное извлечение (доверие 7)  [32ED95D7]
Трек 11  точное извлечение (доверие 7)  [7A1AB983]
Трек 12  точное извлечение (доверие 7)  [F71E6F53]

Все треки извлечены точно

Конец отчёта
Код:
Код:
-----------------------

DON'T MODIFY THIS FILE

-----------------------

PERFORMER: auCDtect Task Manager, ver. 1.5.1RC6 build 1.5.1.7
Copyright (c) 2008-2010 y-soft. All rights reserved
http:/y-soft.org

ANALYZER: auCDtect: CD records authenticity detector, version 0.8.2
Copyright (c) 2004 Oleg Berngardt. All rights reserved.
Copyright (c) 2004 Alexander Djourik. All rights reserved.

FILE: Creedence Clearwater Revival - Creedence Country.flac
  Size: 237580190 Hash: 879C2D500E0D626B0F8504DBA3486D1C Accuracy: -m0
  Conclusion: CDDA 100%
  Signature: 6439216F79DCC9A92C39A7849312B88E031AE393


01. Lookin' For A Reason [00:03:28]
02. Take It Like A Friend [00:02:59]
03. Need Someone To Hold [00:02:59]
04. Tearin' Up The Country [00:02:13]
05. Someday Never Comes [00:03:59]
06. What Are You Gonna Do [00:02:52]
07. Sail Away [00:02:28]
08. Hello Mary Lou [00:02:12]
09. Door To Door [00:02:07]
10. Sweet Hitch-Hiker [00:02:58]

Продолжительность: 00:28:10
Код:
Код:
Exact Audio Copy V0.99 prebeta 5 from 4. May 2009

Отчёт EAC об извлечении, выполненном 15. августа 2010, 19:06

Creedence Clearwater Revival / Mardi Gras

Дисковод: ASUS    DRW-24B3ST   Adapter: 0  ID: 0

Режим чтения                 : Достоверность
Использование точного потока : Да
Отключение кэша аудио        : Да
Использование указателей C2  : Нет

Коррекция смещения при чтении                     : 6
Способность читать области Lead-in и Lead-out     : Нет
Заполнение пропущенных сэмплов тишиной            : Да
Удаление блоков с тишиной в начале и конце        : Нет
При вычислениях CRC использовались нулевые сэмплы : Да
Интерфейс                                         : Установленный внешний

ASPI-интерфейс

Выходной формат : Внутренние WAV-операции
Формат сэмплов  : 44.100 Гц; 16 бит; стерео

TOC извлечённого CD

     Трек |   Старт  | Длительность | Начальный сектор | Конечный сектор
    ---------------------------------------------------------------------
       1  |  0:00.00 |    3:30.05   |           0      |      15754
       2  |  3:30.05 |    3:02.03   |       15755      |      29407
       3  |  6:32.08 |    3:03.42   |       29408      |      43174
       4  |  9:35.50 |    2:19.45   |       43175      |      53644
       5  | 11:55.20 |    4:02.18   |       53645      |      71812
       6  | 15:57.38 |    2:56.25   |       71813      |      85037
       7  | 18:53.63 |    2:32.52   |       85038      |      96489
       8  | 21:26.40 |    2:16.50   |       96490      |     106739
       9  | 23:43.15 |    2:13.48   |      106740      |     116762
      10  | 25:56.63 |    2:58.32   |      116763      |     130144

Характеристики диапазона извлечения и сообщения об ошибках

Выбранный диапазон

     Имя файла E:\=Music EAC=\Creedence Clearwater Revival -10CD- Collection

(ZYX, Fantasy FCD CCR-10-2)\08-1972 -Mardi Gras\Creedence Clearwater Revival

- Mardi Gras.wav

     Пиковый уровень 93.6 %
     Качество диапазона 100.0 %
     CRC теста B001D59F
     CRC копии B001D59F
     Копирование... OK

Ошибок не произошло

AccurateRip: сводка

Трек  1  точное извлечение (доверие 8)  [2F0954EF]
Трек  2  точное извлечение (доверие 8)  [D0948D22]
Трек  3  точное извлечение (доверие 7)  [74C69488]
Трек  4  точное извлечение (доверие 8)  [D0299EE5]
Трек  5  точное извлечение (доверие 8)  [2F5036D8]
Трек  6  точное извлечение (доверие 8)  [E5BFCDAB]
Трек  7  точное извлечение (доверие 8)  [4334D011]
Трек  8  точное извлечение (доверие 8)  [E3923C1E]
Трек  9  точное извлечение (доверие 9)  [837E7ABA]
Трек 10  точное извлечение (доверие 9)  [728FC553]

Все треки извлечены точно

Конец отчёта
Код:
Код:
-----------------------

DON'T MODIFY THIS FILE

-----------------------

PERFORMER: auCDtect Task Manager, ver. 1.5.1RC6 build 1.5.1.7
Copyright (c) 2008-2010 y-soft. All rights reserved
http:/y-soft.org

ANALYZER: auCDtect: CD records authenticity detector, version 0.8.2
Copyright (c) 2004 Oleg Berngardt. All rights reserved.
Copyright (c) 2004 Alexander Djourik. All rights reserved.

FILE: Creedence Clearwater Revival - Mardi Gras.flac
  Size: 182439764 Hash: FB39D4C77C58F39C5B1AA0C850DABA49 Accuracy: -m0
  Conclusion: CDDA 100%
  Signature: CA7524C715B9A019AA3DF9C24FED0F0D8F1541D8


01. Born on the Bayou [00:04:54]
02. Green River (Medley Pt. 1) [00:02:40]
03. Suzie Q. (Medley Pt. 2) [00:01:31]
04. It Came Out of the Sky [00:03:06]
05. Travelin' Band [00:02:03]
06. Fortunate Son [00:02:25]
07. Commotion [00:02:20]
08. Lodi [00:03:05]
09. Bad Moon Rising [00:02:04]
10. Proud Mary [00:02:48]
11. Up Around the Bend [00:02:41]
12. Hey Tonight [00:02:25]
13. Keep on Chooglin' [00:12:38]

Продолжительность: 00:44:40
Код:
Код:
Exact Audio Copy V0.99 prebeta 5 from 4. May 2009

Отчёт EAC об извлечении, выполненном 15. августа 2010, 21:56

Creedence Clearwater Revival / Live in Europe

Дисковод: ASUS    DRW-24B3ST   Adapter: 0  ID: 0

Режим чтения                 : Достоверность
Использование точного потока : Да
Отключение кэша аудио        : Да
Использование указателей C2  : Нет

Коррекция смещения при чтении                     : 6
Способность читать области Lead-in и Lead-out     : Нет
Заполнение пропущенных сэмплов тишиной            : Да
Удаление блоков с тишиной в начале и конце        : Нет
При вычислениях CRC использовались нулевые сэмплы : Да
Интерфейс                                         : Установленный внешний

ASPI-интерфейс

Выходной формат : Внутренние WAV-операции
Формат сэмплов  : 44.100 Гц; 16 бит; стерео

TOC извлечённого CD

     Трек |   Старт  | Длительность | Начальный сектор | Конечный сектор
    ---------------------------------------------------------------------
       1  |  0:00.00 |    5:03.37   |           0      |      22761
       2  |  5:03.37 |    2:40.23   |       22762      |      34784
       3  |  7:43.60 |    1:50.25   |       34785      |      43059
       4  |  9:34.10 |    3:12.62   |       43060      |      57521
       5  | 12:46.72 |    2:12.18   |       57522      |      67439
       6  | 14:59.15 |    2:25.02   |       67440      |      78316
       7  | 17:24.17 |    2:33.58   |       78317      |      89849
       8  | 19:58.00 |    3:22.35   |       89850      |     105034
       9  | 23:20.35 |    2:04.35   |      105035      |     114369
      10  | 25:24.70 |    2:52.37   |      114370      |     127306
      11  | 28:17.32 |    2:41.30   |      127307      |     139411
      12  | 30:58.62 |    2:41.25   |      139412      |     151511
      13  | 33:40.12 |   12:38.20   |      151512      |     208381

Характеристики диапазона извлечения и сообщения об ошибках

Выбранный диапазон

     Имя файла E:\=Music EAC=\Creedence Clearwater Revival -10CD- Collection

(ZYX, Fantasy FCD CCR-10-2)\09-1973 -Live In Europe\Creedence Clearwater

Revival - Live in Europe.wav

     Пиковый уровень 94.0 %
     Качество диапазона 100.0 %
     CRC теста 4C20E3B3
     CRC копии 4C20E3B3
     Копирование... OK

Ошибок не произошло

AccurateRip: сводка

Трек  1  точное извлечение (доверие 10)  [A2212DD7]
Трек  2  точное извлечение (доверие 10)  [C4D7F1B8]
Трек  3  точное извлечение (доверие 10)  [8F293047]
Трек  4  точное извлечение (доверие 10)  [CF6799BF]
Трек  5  точное извлечение (доверие 10)  [6A2451BF]
Трек  6  точное извлечение (доверие 10)  [C4710F8C]
Трек  7  точное извлечение (доверие 10)  [19BA976D]
Трек  8  точное извлечение (доверие 10)  [961C7932]
Трек  9  точное извлечение (доверие 10)  [97A492F8]
Трек 10  точное извлечение (доверие 10)  [C9A564C5]
Трек 11  точное извлечение (доверие 10)  [ADA79836]
Трек 12  точное извлечение (доверие 9)  [B82D683F]
Трек 13  точное извлечение (доверие 10)  [7FACCC55]

Все треки извлечены точно

Конец отчёта
Код:
Код:
-----------------------

DON'T MODIFY THIS FILE

-----------------------

PERFORMER: auCDtect Task Manager, ver. 1.5.1RC6 build 1.5.1.7
Copyright (c) 2008-2010 y-soft. All rights reserved
http:/y-soft.org

ANALYZER: auCDtect: CD records authenticity detector, version 0.8.2
Copyright (c) 2004 Oleg Berngardt. All rights reserved.
Copyright (c) 2004 Alexander Djourik. All rights reserved.

FILE: Creedence Clearwater Revival - Live in Europe.flac
  Size: 270373941 Hash: C20DA6D8CDE1F417D0208EBE6652DB7F Accuracy: -m0
  Conclusion: CDDA 100%
  Signature: 7A294805ACB3409E62ABD042307CE0530052A786


01. Heard It Through The Grapevine [00:11:04]
02. Keep On Chooglin' [00:07:41]
03. Suzie Q [00:08:34]
04. Pagan Baby [00:06:23]
05. Born On The Bayou [00:05:15]

Продолжительность: 00:38:54
Код:
Код:
Exact Audio Copy V0.99 prebeta 5 from 4. May 2009

Отчёт EAC об извлечении, выполненном 15. августа 2010, 21:29

Creedence Clearwater Revival / Chooglin'

Дисковод: ASUS    DRW-24B3ST   Adapter: 0  ID: 0

Режим чтения                 : Достоверность
Использование точного потока : Да
Отключение кэша аудио        : Да
Использование указателей C2  : Нет

Коррекция смещения при чтении                     : 6
Способность читать области Lead-in и Lead-out     : Нет
Заполнение пропущенных сэмплов тишиной            : Да
Удаление блоков с тишиной в начале и конце        : Нет
При вычислениях CRC использовались нулевые сэмплы : Да
Интерфейс                                         : Установленный внешний

ASPI-интерфейс

Выходной формат : Внутренние WAV-операции
Формат сэмплов  : 44.100 Гц; 16 бит; стерео

TOC извлечённого CD

     Трек |   Старт  | Длительность | Начальный сектор | Конечный сектор
    ---------------------------------------------------------------------
       1  |  0:00.00 |   11:08.45   |           0      |      50144
       2  | 11:08.45 |    7:41.70   |       50145      |      84789
       3  | 18:50.40 |    8:37.32   |       84790      |     123596
       4  | 27:27.72 |    6:23.60   |      123597      |     152381
       5  | 33:51.57 |    5:15.53   |      152382      |     176059

Характеристики диапазона извлечения и сообщения об ошибках

Выбранный диапазон

     Имя файла E:\=Music EAC=\Creedence Clearwater Revival -10CD- Collection

(ZYX, Fantasy FCD CCR-10-2)\10-1982 -Chooglin'\Creedence Clearwater Revival -

Chooglin'.wav

     Пиковый уровень 100.0 %
     Качество диапазона 100.0 %
     CRC теста E4A9B080
     CRC копии E4A9B080
     Копирование... OK

Ошибок не произошло

AccurateRip: сводка

Трек  1  точное извлечение (доверие 14)  [FB9E487B]
Трек  2  точное извлечение (доверие 15)  [19D12013]
Трек  3  точное извлечение (доверие 14)  [36D3D209]
Трек  4  точное извлечение (доверие 14)  [2D21C58D]
Трек  5  точное извлечение (доверие 14)  [1647D000]

Все треки извлечены точно

Конец отчёта
Код:
Код:
-----------------------

DON'T MODIFY THIS FILE

-----------------------

PERFORMER: auCDtect Task Manager, ver. 1.5.1RC6 build 1.5.1.7
Copyright (c) 2008-2010 y-soft. All rights reserved
http:/y-soft.org

ANALYZER: auCDtect: CD records authenticity detector, version 0.8.2
Copyright (c) 2004 Oleg Berngardt. All rights reserved.
Copyright (c) 2004 Alexander Djourik. All rights reserved.

FILE: Creedence Clearwater Revival - Chooglin'.flac
  Size: 241199529 Hash: DDE427C9F5F9E94E4050E0A3F286A39B Accuracy: -m0
  Conclusion: CDDA 100%
  Signature: 85BFBF31B90E94CEAABDD57F1E19A20013E5EEDE
Правила, инструкции, FAQ!!!
Торрент  Добавлен [16 мар 2014, 00:21] Скачать торрент Магнет ссылка
Скачать торрент
[ Размер 17.11 КБ / Просмотров 45 ]

Статус  
 
Размер  2.19 ГБ
Приватный: Нет (DHT включён)
.torrent скачан  0
 


     Отправить личное сообщение
   
Страница 1 из 1
Показать сообщения за:  Поле сортировки  
Начать новую тему Ответить на тему


Сейчас этот форум просматривают: нет зарегистрированных пользователей и гости: 0


Вы не можете начинать темы
Вы не можете отвечать на сообщения
Вы не можете редактировать свои сообщения
Вы не можете удалять свои сообщения
Вы не можете добавлять вложения

Перейти:  
cron