Начать новую тему Ответить на тему
Статистика раздачи
Размер: 1.78 ГБ | Добавлен: 24 авг 2016, 14:17 | Скачали: 1
Сидеров: 4  [0 байт/сек]    Личеров: 1  [0 байт/сек]
Пред. тема | След. тема 

Автор
Сообщение

СообщениеДобавлено: 24 авг 2016, 14:17 

Ответить с цитатой 

D.A.D. (Disneyland After Dark) ‎/ No Fuel Left For The Pilgrims

Жанр: Country Rock, Hard Rock
Год выпуска: 1989
Лейбл: Warner Bros. Records – 925 999-1, Warner Bros. Rec
Страна-производитель: Germany
Аудио кодек: FLAC
Тип рипа: image+.cue
Формат записи: 24/192
Формат раздачи: 24/192
Продолжительность: 00:41:21
Треклист:
A1 Sleeping My Day Away 4:22
A2 Jihad 2:53
A3 Point Of View 4:14
A4 Rim Of Hell 4:33
A5 ZCMI 2:45
A6 True Believer 2:21
B1 Girl Nation 3:38
B2 Lords Of The Atlas 3:18
B3 Overmuch 3:47
B4 Siamese Twin 2:41
B5 Wild Talk 4:03
B6 Ill Will 2:03

Источник оцифровки: автором раздачи
Устройство воспроизведения: TRIO KP-700D
Головка звукоснимателя: Goldring 1012
Предварительный усилитель: NAD PP2 M / ARCAM delta 290
АЦП: M-Audio Audiophile 192
Программа-оцифровщик: Sound Forge Pro 10
Обработка: Sound Forge Pro 10
REM GENRE Country Rock, Hard Rock
REM DATE 1989
REM MViktor_VINYLRIP
REM Warner Bros. Records – 925 999-1, Germany
REM Producer - D.A.D., Nick Foss
REM Recorded at Medley Studio.
PERFORMER "D.A.D."
TITLE "No Fuel Left For The Pilgrims"
FILE "No Fuel Left For The Pilgrims Side 1) 925 99-1.flac" WAVE
TRACK 01 AUDIO
TITLE "Sleeping My Day Away"
PERFORMER "D-A-D"
INDEX 01 00:00:00
TRACK 02 AUDIO
TITLE "Jihad"
PERFORMER "D-A-D"
INDEX 01 04:24:55
TRACK 03 AUDIO
TITLE "Point Of View"
PERFORMER "D-A-D"
INDEX 01 07:21:30
TRACK 04 AUDIO
TITLE "Rim Of Hell"
PERFORMER "D-A-D"
INDEX 01 11:37:30
TRACK 05 AUDIO
TITLE "ZCMI"
PERFORMER "D-A-D"
INDEX 01 16:14:20
TRACK 06 AUDIO
TITLE "True Believer"
PERFORMER "D-A-D"
INDEX 01 19:02:00
FILE "No Fuel Left For The Pilgrims Side 2) 925 999-1.flac" WAVE
TRACK 07 AUDIO
TITLE "Girl Nation"
PERFORMER "D-A-D"
INDEX 01 00:00:00
TRACK 08 AUDIO
TITLE "Lords Of The Atlas"
PERFORMER "D-A-D"
INDEX 01 03:41:00
TRACK 09 AUDIO
TITLE "Overmuch"
PERFORMER "D-A-D"
INDEX 01 07:06:20
TRACK 10 AUDIO
TITLE "Siamese Twin"
PERFORMER "D-A-D"
INDEX 01 10:56:20
TRACK 11 AUDIO
TITLE "Wild Talk"
PERFORMER "D-A-D"
INDEX 01 13:40:50
TRACK 12 AUDIO
TITLE "Ill Will"
PERFORMER "D-A-D"
INDEX 01 17:47:30

Первые 2 минуты каждой стороны.

Bass, Backing Vocals – Stig Pedersen
Co-producer – Lars Overgaard
Drums – Peter L. Jensen
Guitar [Lead], Backing Vocals – Jacob Binzer
Producer – D.A.D., Nick Foss
Vocals, Guitar [Rhythm] – Jesper Binzer
Phonographic Copyright (p) – Warner Bros. Records Inc.
Phonographic Copyright (p) – WEA International Inc.
Copyright (c) – Warner Bros. Records Inc.
Recorded At – Medley Studio
Mixed At – Medley Studio
Remixed At – Image Recording Studios
Written-By – D-A-D

D-A-D начали играть вместе в начале 1980-х годов в Копенгагене, Дания, в соответствии с их оригинальное название группы Disneyland After Dark.
D-A-D выпустили свой первый EP в 1985 году, и уже вместе больше двадцати лет, и лишь одно изменение в составе, как Laust Sonne заменил бывший барабанщик Питер Lundholm Дженсен в 1999 году.
Когда группа сделала свой Международный прорыв в 1989 году, они должны были изменить название группы на D.A.D., чтобы избежать надвигающейся иск от Компании Уолта Диснея. В 1995 году, "орфография" изменено на D:A:D, чтобы сделать это более очевидным, что это была аббревиатура. Наконец, в 2000 году в группу история стала одним из передовых препинания, как написание было изменено на более Интернет-дружески D-A-D.
Правила, инструкции, FAQ!!!
Торрент  Добавлен [24 авг 2016, 14:17] Скачать торрент Магнет ссылка
Скачать торрент
[ Размер 18.86 КБ / Просмотров 57 ]

Статус
Проверен 
 
Размер  1.78 ГБ
Приватный: Нет (DHT включён)
.torrent скачан  1
 


     Отправить личное сообщение
   
Страница 1 из 1
Показать сообщения за:  Поле сортировки  
Начать новую тему Ответить на тему


Сейчас этот форум просматривают: нет зарегистрированных пользователей и гости: 0


Вы не можете начинать темы
Вы не можете отвечать на сообщения
Вы не можете редактировать свои сообщения
Вы не можете удалять свои сообщения
Вы не можете добавлять вложения

Перейти:  
cron
cron