Начать новую тему Ответить на тему
Статистика раздачи
Размер: 1.53 ГБ | Добавлен: 24 авг 2016, 11:32 | Скачали: 2
Сидеров: 9  [0 байт/сек]    Личеров: 3  [0 байт/сек]
Пред. тема | След. тема 

Автор
Сообщение

СообщениеДобавлено: 24 авг 2016, 11:32 

Ответить с цитатой 

Leonard Cohen - Live At The Isle Of Wight 1970

#777Жанр: Contemporary Folk, Folk Rock
Год выпуска: 2009
Лейбл: Music On Vinyl – MOVLP005 (2xLP)
Страна-производитель: EU
Аудио кодек: FLAC
Тип рипа: tracks
Формат записи: 32/96
Формат раздачи: 24/96
Продолжительность: 1:20:20
Треклист:

Side One:
A1 Introduction (03:06)
A2 Bird On The Wire (04:15)
A3 Intro To So Long, Marianne (00:16)
A4 So Long, Marianne (07:07)
A5 Intro: “Let’s Renew Ourselves Now...” (00:51)
A6 You Know Who I Am (03:58)
Side Two:
B1 Intro To Poems (00:29)
B2 Lady Midnight (03:38)
B3 They Locked Up A Man (poem) / A Person Who Eats Meat / Intro (02:00)
B4 One Of Us Cannot Be Wrong (04:54)
B5 The Stranger Song (06:37)
Side Three:
C1 Tonight Will Be Fine (06:17)
C2 Hey, That’s No Way To Say Goodbye (03:34)
C3 Diamonds In The Mine (05:23)
C4 Suzanne (04:18)
Side Four:
D1 Sing Another Song, Boys (06:13)
D2 The Partisan (04:47)
D3 Famous Blue Raincoat (05:20)
D4 Seems So Long Ago, Nancy (04:19)

Personnel:
Leonard Cohen - acoustic guitar & vocal
With The Army
Ron Cornelius - guitar
Charlie Daniels - electric bass, fiddle
Bob Johnston - organ, piano, guitar, harmonica
Elkin "Bubba" Fowler - bass, banjo
Corlynn Hanney, Donna Washburn, Susan Musmanno - backgroung vocals

Recorded Sunday, August 31, 1970 at the East Afton Farm Isle of Wight Festival
Еще один концертный альбом, на этот раз Леонарда Коэна. Записи сделаны во время знаменитого третьего рок-фестиваля Isle of Wight в 70-м году. Альбом вышел лишь в 2009 (на пару с документальным фильмом).
Источник оцифровки: Рип взят из сети. Автор: Alfredo Catalani
Код класса состояния винила: Mint
Posted by AlfredoCatalani @ July 21st, 2012
Leonard Cohen Live at the Isle Of Wight 1970 {2LPs 180g Re Pressing} 24 bit/96 kHz

Vinyl condition: Mint/Still Sealed
Comes from: Property of AC

Ripping Infos
* RCM: Okki Nokki
* TT: Clearaudio Champion Level II
* System: Special Edition Denon DL 103
* Phono stage: Pro-Ject Phono Box II
* Pre Amp: Unison Research Unico Pre (Tube)
* NEW ! ADC/DAC: RME Fireface UC
* Finals: Opera Consonance 9.9 Mono (Tube)
* Speakers: Dali Helikon 400
* Connections: MIT Terminator, Audioquest Emerald, Audioquest Quartz

* Software: iZotope RX Advanced v2.02, Adobe Audition CS 5.5 -> Wave 32 bit/96 kHz
* Light de-Clicking with ClickRepair, significant clicks manually removing, no De-Noising

* DR-Analisys before converting to Flac
* Converting Wave 32bit/96kHz -> Flac 24bit/96kHz: Twisted Wave
* Artwork: Sony Alpha 350, Epson Perfection V750 Pro, Photoshop CS 5.5




=======================================================================
———————————————————————————————-
Analyzed folder: /Volumes/PSK & MUSIC/HiResMusic/ FERTIG STELLEN/96k Leonard Cohen Live

1970
———————————————————————————————-
DR Peak RMS Filename
———————————————————————————————-
DR10 -1.63 dB -18.30 dB A1 Introduction.wav
DR10 -1.06 dB -14.00 dB A2 Bird On The Wire.wav
DR11 -5.10 dB -21.14 dB A3 Intro To So Long Marianne.wav
DR10 -0.78 dB -12.74 dB A4 So Long Marianne.wav
DR10 -1.32 dB -16.98 dB A5 Intro ‘Let’s Renew Ourselves Now…’.wav
DR11 -0.54 dB -14.67 dB A6 You Know Who I Am.wav
DR14 -4.01 dB -22.04 dB B1 Intro To Poems.wav
DR11 -0.86 dB -13.79 dB B2 Lady Midnight.wav
DR14 -4.89 dB -25.25 dB B3 They Locked Up A Man (poem) – A Person Who Eats Meat –

Intro.wav
DR10 -0.82 dB -13.90 dB B4 One Of Us Cannot Be Wrong.wav
DR10 -2.37 dB -15.64 dB B5 The Stranger Song.wav
DR11 -0.71 dB -13.49 dB C1 Tonight Will Be Fine.wav
DR11 -2.62 dB -16.04 dB C2 Hey That’s No Way To Say Goodbye.wav
DR10 -1.71 dB -13.69 dB C3 Diamonds In The Mine.wav
DR10 -3.56 dB -16.11 dB C4 Suzanne.wav
DR11 -0.65 dB -13.50 dB D1 Sing Another Song Boys.wav
DR11 -3.26 dB -15.99 dB D2 The Partisan.wav
DR11 -1.39 dB -14.87 dB D3 Famous Blue Raincoat.wav
DR10 -1.63 dB -14.60 dB D4 Seems So Long Ago Nancy.wav
———————————————————————————————-
Number of files: 19
Official DR value: DR11
=======================================================================
Мои раздачи:
Правила, инструкции, FAQ!!!
Торрент  Добавлен [24 авг 2016, 11:32] Скачать торрент Магнет ссылка
Скачать торрент
[ Размер 17.49 КБ / Просмотров 15 ]

Статус
Проверен 
 
Размер  1.53 ГБ
Приватный: Нет (DHT включён)
.torrent скачан  2
 


     Отправить личное сообщение
   
Страница 1 из 1
Показать сообщения за:  Поле сортировки  
Начать новую тему Ответить на тему


Сейчас этот форум просматривают: нет зарегистрированных пользователей и гости: 0


Вы не можете начинать темы
Вы не можете отвечать на сообщения
Вы не можете редактировать свои сообщения
Вы не можете удалять свои сообщения
Вы не можете добавлять вложения

Перейти:  
cron