Начать новую тему Ответить на тему
Статистика раздачи
Размер: 310.77 МБ | Добавлен: 16 мар 2014, 00:47 | Скачали: 1
Сидеров: 1  [0 байт/сек]    Личеров: 0  [0 байт/сек]
Пред. тема | След. тема 

Автор
Сообщение

СообщениеДобавлено: 16 мар 2014, 00:47 

Ответить с цитатой 

Confide
- All Is Calm


Год выпуска: 2013
Жанр: Post-Hardcore | Electronic
Продолжительность: 00:40:19
Тип издания: Альбом
Страна: США



Треклист:

01. Rise Up
02. Sooner or Later
03. We Just Wanted Freedom
04. Days Are Gone
05. I Won't Let You Go
06. Unhappy Together, Unhappy Alone
07. Somewhere to Call Home
08. Give Me A Voice
09. Move On
10. Livin' the Dream
11. Time After Time
12. Do You Believe Me Now?


Код:
Код:
Exact Audio Copy V1.0 beta 3 from 29. August 2011

EAC extraction logfile from 13. December 2013, 21:49

Confide / All Is Calm

Used drive  : TSSTcorpCDDVDW SH-S203D   Adapter: 0  ID: 1

Read mode               : Secure
Utilize accurate stream : Yes
Defeat audio cache      : Yes
Make use of C2 pointers : No

Read offset correction                      : 6
Overread into Lead-In and Lead-Out          : No
Fill up missing offset samples with silence : Yes
Delete leading and trailing silent blocks   : No
Null samples used in CRC calculations       : Yes
Used interface                              : Native Win32 interface for Win NT & 2000
Gap handling                                : Appended to previous track

Used output format              : User Defined Encoder
Selected bitrate                : 896 kBit/s
Quality                         : High
Add ID3 tag                     : No
Command line compressor         : D:\PROGRAM FILES\Exact Audio Copy\flac.exe
Additional command line options : -V -8 -T "Genre=%genre%" -T "Artist=%artist%" -T "Title=%title%" -T "Album=%albumtitle%" -T "Date=%year%" -T "Tracknumber=%tracknr%" -T "Comment=%comment%" %source%

TOC of the extracted CD

     Track |   Start  |  Length  | Start sector | End sector
    ---------------------------------------------------------
        1  |  0:00.00 |  3:05.35 |         0    |    13909
        2  |  3:05.35 |  3:37.32 |     13910    |    30216
        3  |  6:42.67 |  3:09.39 |     30217    |    44430
        4  |  9:52.31 |  3:35.58 |     44431    |    60613
        5  | 13:28.14 |  3:07.23 |     60614    |    74661
        6  | 16:35.37 |  3:50.36 |     74662    |    91947
        7  | 20:25.73 |  3:36.65 |     91948    |   108212
        8  | 24:02.63 |  3:07.69 |    108213    |   122306
        9  | 27:10.57 |  2:31.32 |    122307    |   133663
       10  | 29:42.14 |  3:28.60 |    133664    |   149323
       11  | 33:10.74 |  3:07.21 |    149324    |   163369
       12  | 36:18.20 |  4:01.55 |    163370    |   181499

Track  1

     Filename D:\Lossless\Confide - All Is Calm - 2013\01 - Rise Up.wav

     Pre-gap length  0:00:02.00

     Peak level 100.0 %
     Extraction speed 4.2 X
     Track quality 100.0 %
     Test CRC F8F96666
     Copy CRC F8F96666
     Track not present in AccurateRip database
     Copy OK

Track  2

     Filename D:\Lossless\Confide - All Is Calm - 2013\02 - Sooner or Later.wav

     Peak level 100.0 %
     Extraction speed 3.8 X
     Track quality 99.9 %
     Test CRC EC9782A0
     Copy CRC EC9782A0
     Track not present in AccurateRip database
     Copy OK

Track  3

     Filename D:\Lossless\Confide - All Is Calm - 2013\03 - We Just Wanted Freedom.wav

     Peak level 100.0 %
     Extraction speed 5.0 X
     Track quality 100.0 %
     Test CRC FE9059C7
     Copy CRC FE9059C7
     Track not present in AccurateRip database
     Copy OK

Track  4

     Filename D:\Lossless\Confide - All Is Calm - 2013\04 - Days Are Gone.wav

     Peak level 100.0 %
     Extraction speed 4.3 X
     Track quality 99.9 %
     Test CRC 906442EB
     Copy CRC 906442EB
     Track not present in AccurateRip database
     Copy OK

Track  5

     Filename D:\Lossless\Confide - All Is Calm - 2013\05 - I Won't Let You Go.wav

     Peak level 100.0 %
     Extraction speed 5.5 X
     Track quality 100.0 %
     Test CRC 516D5F52
     Copy CRC 516D5F52
     Track not present in AccurateRip database
     Copy OK

Track  6

     Filename D:\Lossless\Confide - All Is Calm - 2013\06 - Unhappy Together, Unhappy Alone.wav

     Peak level 100.0 %
     Extraction speed 6.1 X
     Track quality 100.0 %
     Test CRC 49A93468
     Copy CRC 49A93468
     Track not present in AccurateRip database
     Copy OK

Track  7

     Filename D:\Lossless\Confide - All Is Calm - 2013\07 - Somewhere to Call Home.wav

     Peak level 100.0 %
     Extraction speed 6.3 X
     Track quality 100.0 %
     Test CRC 3ACCC87C
     Copy CRC 3ACCC87C
     Track not present in AccurateRip database
     Copy OK

Track  8

     Filename D:\Lossless\Confide - All Is Calm - 2013\08 - Give Me A Voice.wav

     Peak level 100.0 %
     Extraction speed 4.9 X
     Track quality 99.9 %
     Test CRC 4299AC97
     Copy CRC 4299AC97
     Track not present in AccurateRip database
     Copy OK

Track  9

     Filename D:\Lossless\Confide - All Is Calm - 2013\09 - Move On.wav

     Peak level 100.0 %
     Extraction speed 6.3 X
     Track quality 100.0 %
     Test CRC 06E3867C
     Copy CRC 06E3867C
     Track not present in AccurateRip database
     Copy OK

Track 10

     Filename D:\Lossless\Confide - All Is Calm - 2013\10 - Livin' the Dream.wav

     Peak level 100.0 %
     Extraction speed 5.0 X
     Track quality 99.9 %
     Test CRC A9B5A5B2
     Copy CRC A9B5A5B2
     Track not present in AccurateRip database
     Copy OK

Track 11

     Filename D:\Lossless\Confide - All Is Calm - 2013\11 - Time After Time.wav

     Peak level 100.0 %
     Extraction speed 7.2 X
     Track quality 100.0 %
     Test CRC 37A91A46
     Copy CRC 37A91A46
     Track not present in AccurateRip database
     Copy OK

Track 12

     Filename D:\Lossless\Confide - All Is Calm - 2013\12 - Do You Believe Me Now.wav

     Peak level 100.0 %
     Extraction speed 7.4 X
     Track quality 100.0 %
     Test CRC AE9F0609
     Copy CRC AE9F0609
     Track not present in AccurateRip database
     Copy OK

None of the tracks are present in the AccurateRip database

No errors occurred

End of status report

==== Log checksum 0A10CD6CED7C4AA4B78D06A7D0F550D85DBFF0675F624A5571FBF79FDAAB4764 ====

Код:
Код:
-----------------------

DON'T MODIFY THIS FILE

-----------------------

PERFORMER: auCDtect Task Manager, ver. 1.6.0 RC1 build 1.6.0.1
Copyright (c) 2008-2010 y-soft. All rights reserved
http:/y-soft.org

ANALYZER: auCDtect: CD records authenticity detector, version 0.8.2
Copyright (c) 2004 Oleg Berngardt. All rights reserved.
Copyright (c) 2004 Alexander Djourik. All rights reserved.

FILE: 12. Confide - Do You Believe Me Now_.flac
  Size: 30774595 Hash: 565F51003A90ABCF247F2FB098AECDC4 Accuracy: -m0
  Conclusion: CDDA 100%
  Signature: E0A54AEB071A487F4C3E9F566CDF93BBEA48915E
FILE: 11. Confide - Time After Time.flac
  Size: 25545989 Hash: BF86A8768AD69187323DBF65EDC65659 Accuracy: -m0
  Conclusion: CDDA 100%
  Signature: A15B5BE575B79445C0996A6F6852A90947E6B52B
FILE: 10. Confide - Livin' the Dream.flac
  Size: 28307883 Hash: FAF15398B021CC3CA2A5FA05AB159C14 Accuracy: -m0
  Conclusion: CDDA 99%
  Signature: 1A762D8DEA3C403A527214E08F3FA6F46CB22043
FILE: 09. Confide - Move On.flac
  Size: 21483963 Hash: 7487AD5F99EC4EDF35B5377F53BB6BDC Accuracy: -m0
  Conclusion: CDDA 100%
  Signature: 68A232455390DA7E53917B863F303C0968C19610
FILE: 08. Confide - Give Me A Voice.flac
  Size: 24220267 Hash: 455A430710DB1530F6B5B67FD27C5FE8 Accuracy: -m0
  Conclusion: CDDA 100%
  Signature: 74ACE18F145761232B75F1054D1DB1C8CC875A4E
FILE: 07. Confide - Somewhere to Call Home.flac
  Size: 29575844 Hash: 2F21361E758F17FC4864C2D46C0520E4 Accuracy: -m0
  Conclusion: CDDA 99%
  Signature: 37507BF301105D022A754396179C71C8971E4D41
FILE: 06. Confide - Unhappy Together, Unhappy Alone.flac
  Size: 28543615 Hash: AB77B6B7416AB1D2BF36768E9C27B650 Accuracy: -m0
  Conclusion: CDDA 100%
  Signature: 9BCF16F6683A41C0EA6DE502DB2E2B40F5F18B4E
FILE: 05. Confide - I Won't Let You Go.flac
  Size: 26203673 Hash: 15D6F5913F85A5EDDDD57225E9B7B16F Accuracy: -m0
  Conclusion: CDDA 99%
  Signature: AA1DB6B6222D8C3D01787DB78333E82F21527DFC
FILE: 04. Confide - Days Are Gone.flac
  Size: 29866896 Hash: EC776DFBCE348BDEB514E1A2B2D2DB69 Accuracy: -m0
  Conclusion: CDDA 100%
  Signature: 6364E766BE000295970FD655FB9425B6C108CD36
FILE: 03. Confide - We Just Wanted Freedom.flac
  Size: 26341888 Hash: E2DC38ABFA2B6902EE2ED9AA684D8CAD Accuracy: -m0
  Conclusion: CDDA 100%
  Signature: 54236756375876CA8B7BD2FF52013D8ECC021FD4
FILE: 02. Confide - Sooner or Later.flac
  Size: 29532412 Hash: A34CF0490965BB74B9AB332F8F1D76BB Accuracy: -m0
  Conclusion: CDDA 100%
  Signature: EA554BBDE93EFA038678590BF54CD49F53C7A3FC
FILE: 01. Confide - Rise Up.flac
  Size: 24614215 Hash: BBE6E1FE1CA00D11395D727977226E73 Accuracy: -m0
  Conclusion: CDDA 99%
  Signature: 5BC624DD16FE176B9AA8CD71B1196C7A3AA1D4E9

Тип рипа: Tracks+.cue
Аудиокодек: FLAC
Битрейт аудио: lossless
Правила, инструкции, FAQ!!!
Торрент  Добавлен [16 мар 2014, 00:47] Скачать торрент Магнет ссылка
Скачать торрент
[ Размер 13.8 КБ / Просмотров 35 ]

Статус  
 
Размер  310.77 МБ
Приватный: Нет (DHT включён)
.torrent скачан  1
 


     Отправить личное сообщение
   
Страница 1 из 1
Показать сообщения за:  Поле сортировки  
Начать новую тему Ответить на тему


Сейчас этот форум просматривают: нет зарегистрированных пользователей и гости: 0


Вы не можете начинать темы
Вы не можете отвечать на сообщения
Вы не можете редактировать свои сообщения
Вы не можете удалять свои сообщения
Вы не можете добавлять вложения

Перейти:  
cron
cron