Начать новую тему Ответить на тему
Статистика раздачи
Размер: 300.52 МБ | Добавлен: 16 мар 2014, 00:09 | Скачали: 0
Сидеров: 1  [0 байт/сек]    Личеров: 6  [0 байт/сек]
Пред. тема | След. тема 

Автор
Сообщение

СообщениеДобавлено: 16 мар 2014, 00:09 

Ответить с цитатой 

Cliff Richard - The Fabulous Rock 'N' Roll Songbook (2013)

Лейбл: Warner Music UK
Каталог: 2564641187
Год: 2013
Жанр: Rock & Roll
Продолжительность: 00:43:58

Кодек: APE (image+.cue)
Битрейт: Lossless

Треклист:
01. Rip It Up
02. Wake Up Little Susie
03. Poetry In Motion
04. Sealed With A Kiss
05. Stood Up
06. Such A Night
07. School Days
08. Teddy Bear & Too Much (Medley)
09. Don't Let Go
10. Dream Lover
11. Stuck On You
12. Fabulous
13. Rave On
14. Johnny B. Goode
15. One More Sunny Day
Код:
Код:
Exact Audio Copy V0.99 prebeta 5 from 4. May 2009

EAC extraction logfile from 29. December 2013, 15:25

Cliff Richard / The Fabulous Rock 'N' Roll Songbook

Used drive  : hp      CDDVDW SH-216BB   Adapter: 0  ID: 0

Read mode               : Secure
Utilize accurate stream : Yes
Defeat audio cache      : No
Make use of C2 pointers : Yes

Read offset correction                      : 6
Overread into Lead-In and Lead-Out          : No
Fill up missing offset samples with silence : Yes
Delete leading and trailing silent blocks   : No
Null samples used in CRC calculations       : Yes
Used interface                              : Native Win32 interface for Win NT & 2000

Used output format              : Monkey's Audio Lossless Encoder
Selected bitrate                : High Lossless Compression
Quality                         : High
Add ID3 tag                     : Yes
Command line compressor         : C:\Program Files (x86)\Monkey's Audio\MAC.exe

TOC of the extracted CD

     Track |   Start  |  Length  | Start sector | End sector
    ---------------------------------------------------------
        1  |  0:00.00 |  2:59.40 |         0    |    13464
        2  |  2:59.40 |  2:43.60 |     13465    |    25749
        3  |  5:43.25 |  3:25.03 |     25750    |    41127
        4  |  9:08.28 |  2:41.14 |     41128    |    53216
        5  | 11:49.42 |  2:55.42 |     53217    |    66383
        6  | 14:45.09 |  2:28.23 |     66384    |    77506
        7  | 17:13.32 |  2:51.35 |     77507    |    90366
        8  | 20:04.67 |  2:42.50 |     90367    |   102566
        9  | 22:47.42 |  3:16.14 |    102567    |   117280
       10  | 26:03.56 |  3:17.14 |    117281    |   132069
       11  | 29:20.70 |  3:04.44 |    132070    |   145913
       12  | 32:25.39 |  2:51.01 |    145914    |   158739
       13  | 35:16.40 |  2:41.00 |    158740    |   170814
       14  | 37:57.40 |  2:48.27 |    170815    |   183441
       15  | 40:45.67 |  3:11.69 |    183442    |   197835

Range status and errors

Selected range

     Filename C:\Users\Arthur\Desktop\Cliff Richard - The Fabulous Rock 'N' Roll Songbook.wav

     Peak level 100.0 %
     Range quality 99.9 %
     Test CRC 393E6B0A
     Copy CRC 393E6B0A
     Copy OK

No errors occurred

AccurateRip summary

Track  1  cannot be verified as accurate (confidence 2)  [499FAB4D], AccurateRip returned [B164E68E]
Track  2  cannot be verified as accurate (confidence 2)  [A52F27CE], AccurateRip returned [7A10162F]
Track  3  cannot be verified as accurate (confidence 2)  [36546BFA], AccurateRip returned [C7A92C12]
Track  4  cannot be verified as accurate (confidence 2)  [F9580218], AccurateRip returned [3B371BB9]
Track  5  cannot be verified as accurate (confidence 2)  [CBB0F3DA], AccurateRip returned [15337C47]
Track  6  cannot be verified as accurate (confidence 2)  [1D3FD93F], AccurateRip returned [7C338722]
Track  7  cannot be verified as accurate (confidence 2)  [6EE7EAC7], AccurateRip returned [8CC2F595]
Track  8  cannot be verified as accurate (confidence 2)  [AF41E280], AccurateRip returned [0C0470EC]
Track  9  cannot be verified as accurate (confidence 2)  [DE3D704C], AccurateRip returned [D25F9B9C]
Track 10  cannot be verified as accurate (confidence 2)  [F3D9E137], AccurateRip returned [A3D54799]
Track 11  cannot be verified as accurate (confidence 2)  [A8B86444], AccurateRip returned [54D83E24]
Track 12  cannot be verified as accurate (confidence 2)  [32E40DE0], AccurateRip returned [6E16B99A]
Track 13  cannot be verified as accurate (confidence 2)  [ACD94E5B], AccurateRip returned [47BF3D8F]
Track 14  cannot be verified as accurate (confidence 2)  [42CF67AD], AccurateRip returned [8CAA7DBF]
Track 15  cannot be verified as accurate (confidence 2)  [CF4E40C6], AccurateRip returned [4059FC0E]

No tracks could be verified as accurate
You may have a different pressing from the one(s) in the database

End of status report
Код:
Код:
-----------------------

DON'T MODIFY THIS FILE

-----------------------

PERFORMER: auCDtect Task Manager, ver. 1.5.1RC4 build 1.5.1.5
Copyright (c) 2008-2010 y-soft. All rights reserved
http:/y-soft.org

ANALYZER: auCDtect: CD records authenticity detector, version 0.8.2
Copyright (c) 2004 Oleg Berngardt. All rights reserved.
Copyright (c) 2004 Alexander Djourik. All rights reserved.

FILE: Cliff Richard - The Fabulous Rock 'N' Roll Songbook.ape
  Size: 314311128 Hash: 8574009C73594419568F2EA71E0751C3 Accuracy: -m0
  Conclusion: CDDA 100%
  Signature: 9DCC354FEA5BF520C79D3353D12E3BF89B7CB251
Код:
Код:
REM GENRE "Rock & Roll"
REM DATE 2013
REM DISCID CE0A4D0F
REM COMMENT "ExactAudioCopy v0.99pb5"
PERFORMER "Cliff Richard"
TITLE "The Fabulous Rock 'N' Roll Songbook"
FILE "Cliff Richard - The Fabulous Rock 'N' Roll Songbook.ape" WAVE
  TRACK 01 AUDIO
    TITLE "Rip It Up"
    PERFORMER "Cliff Richard"
    INDEX 01 00:00:00
  TRACK 02 AUDIO
    TITLE "Wake Up Little Susie"
    PERFORMER "Cliff Richard"
    INDEX 00 02:58:20
    INDEX 01 02:59:40
  TRACK 03 AUDIO
    TITLE "Poetry In Motion"
    PERFORMER "Cliff Richard"
    INDEX 00 05:42:05
    INDEX 01 05:43:25
  TRACK 04 AUDIO
    TITLE "Sealed With A Kiss"
    PERFORMER "Cliff Richard"
    INDEX 00 09:08:18
    INDEX 01 09:08:28
  TRACK 05 AUDIO
    TITLE "Stood Up"
    PERFORMER "Cliff Richard"
    INDEX 00 11:47:57
    INDEX 01 11:49:42
  TRACK 06 AUDIO
    TITLE "Such A Night"
    PERFORMER "Cliff Richard"
    INDEX 00 14:44:09
    INDEX 01 14:45:09
  TRACK 07 AUDIO
    TITLE "School Days"
    PERFORMER "Cliff Richard"
    INDEX 00 17:12:32
    INDEX 01 17:13:32
  TRACK 08 AUDIO
    TITLE "Teddy Bear - Too Much"
    PERFORMER "Cliff Richard"
    INDEX 00 20:02:67
    INDEX 01 20:04:67
  TRACK 09 AUDIO
    TITLE "Don't Let Go"
    PERFORMER "Cliff Richard"
    INDEX 00 22:46:12
    INDEX 01 22:47:42
  TRACK 10 AUDIO
    TITLE "Dream Lover"
    PERFORMER "Cliff Richard"
    INDEX 00 26:01:56
    INDEX 01 26:03:56
  TRACK 11 AUDIO
    TITLE "Stuck On You"
    PERFORMER "Cliff Richard"
    INDEX 00 29:19:40
    INDEX 01 29:20:70
  TRACK 12 AUDIO
    TITLE "Fabulous"
    PERFORMER "Cliff Richard"
    INDEX 00 32:25:29
    INDEX 01 32:25:39
  TRACK 13 AUDIO
    TITLE "Rave On"
    PERFORMER "Cliff Richard"
    INDEX 00 35:15:55
    INDEX 01 35:16:40
  TRACK 14 AUDIO
    TITLE "Johnny B Goode"
    PERFORMER "Cliff Richard"
    INDEX 00 37:56:20
    INDEX 01 37:57:40
  TRACK 15 AUDIO
    TITLE "One More Sunny Day"
    PERFORMER "Cliff Richard"
    INDEX 00 40:43:67
    INDEX 01 40:45:67
Спасибо London
Правила, инструкции, FAQ!!!
Торрент  Добавлен [16 мар 2014, 00:09] Скачать торрент Магнет ссылка
Скачать торрент
[ Размер 12.96 КБ / Просмотров 35 ]

Статус  
 
Размер  300.52 МБ
Приватный: Нет (DHT включён)
.torrent скачан  0
 


     Отправить личное сообщение
   
Страница 1 из 1
Показать сообщения за:  Поле сортировки  
Начать новую тему Ответить на тему


Сейчас этот форум просматривают: нет зарегистрированных пользователей и гости: 0


Вы не можете начинать темы
Вы не можете отвечать на сообщения
Вы не можете редактировать свои сообщения
Вы не можете удалять свои сообщения
Вы не можете добавлять вложения

Перейти:  
cron