Начать новую тему Ответить на тему
Статистика раздачи
Размер: 330.54 МБ | Добавлен: 05 дек 2013, 10:37 | Скачали: 0
Сидеров: 1  [0 байт/сек]    Личеров: 0  [0 байт/сек]
Пред. тема | След. тема 

Автор
Сообщение

СообщениеДобавлено: 05 дек 2013, 10:37 

Ответить с цитатой 


Chicago - Chicago XXXIII: O Christmas Three (2011)

Год: 2011
Жанр: Rock, Christmas
Продолжительность: 00:50:58
Кодек: FLAC
Битрейт: Lossless
Наличие сканов: да
Источник: erro


Треклист:
01. Wonderful Christmas Time (featuring Dolly Parton) (Paul McCartney) 3:50
02. Rockin' Around the Christmas Tree (Johnny Marks) 3:38
03. I Saw Three Ships (featuring America) (Traditional) 3:15
04. Merry Christmas, Happy Holidays (Justin Timberlake; JC Chasez; Veit Renn) 4:21
05. What Are You Doing New Year’s Eve? (Frank Loesser) 5:16
06. It's the Most Wonderful Time of the Year (Edward Pola; George Wyle) 3:42
07. I'll Be Home for Christmas (Kim Gannon; Walter Kent; Buck Ram) 3:36
08. On The Last Night Of The Year (Galdston; Whalen) 3:48
09. Merry Christmas Darling (featuring Bebe Winans) (Richard Carpenter; Frank Pooler) 3:22
10. Rockin' and Rollin' on Christmas Day (featuring Steve Cropper) (Lee Loughnane; John Durill) 4:19
11. My Favorite Things (Richard Rodgers; Oscar Hammerstein II) 3:30
12. O Christmas Tree (Traditional) 3:54
13. Jingle Bells (James Lord Pierpont) 3:40
14. Here Comes Santa Claus/Joy to the World (with Children's Choir) (Gene Autry; Oakley Haldeman/Isaac Watts) 3:03

Код:
Код:
Exact Audio Copy V0.99 prebeta 5 from 4. May 2009

EAC extraction logfile from 26. November 2011, 4:34

Chicago / O Christmas Three

Used drive  : SONY    CD-RW  CRX230EE   Adapter: 1  ID: 0

Read mode               : Secure
Utilize accurate stream : Yes
Defeat audio cache      : Yes
Make use of C2 pointers : No

Read offset correction                      : 6
Overread into Lead-In and Lead-Out          : No
Fill up missing offset samples with silence : Yes
Delete leading and trailing silent blocks   : No
Null samples used in CRC calculations       : Yes
Used interface                              : Installed external ASPI interface

Used output format : Internal WAV Routines
Sample format      : 44.100 Hz; 16 Bit; Stereo

TOC of the extracted CD

     Track |   Start  |  Length  | Start sector | End sector
    ---------------------------------------------------------
        1  |  0:00.00 |  3:50.08 |         0    |    17257
        2  |  3:50.08 |  3:28.53 |     17258    |    32910
        3  |  7:18.61 |  3:05.66 |     32911    |    46851
        4  | 10:24.52 |  4:12.02 |     46852    |    65753
        5  | 14:36.54 |  5:06.20 |     65754    |    88723
        6  | 19:42.74 |  3:32.60 |     88724    |   104683
        7  | 23:15.59 |  3:11.47 |    104684    |   119055
        8  | 26:27.31 |  3:38.25 |    119056    |   135430
        9  | 30:05.56 |  3:12.52 |    135431    |   149882
       10  | 33:18.33 |  4:09.43 |    149883    |   168600
       11  | 37:28.01 |  3:20.58 |    168601    |   183658
       12  | 40:48.59 |  3:44.64 |    183659    |   200522
       13  | 44:33.48 |  3:30.27 |    200523    |   216299
       14  | 48:04.00 |  2:53.59 |    216300    |   229333

Range status and errors

Selected range

     Filename G:\Chicago XXXIII - O Christmas Three (2011)\Chicago - O Christmas Three.wav

     Peak level 97.7 %
     Range quality 100.0 %
     Copy CRC 63B40FCD
     Copy OK

No errors occurred

AccurateRip summary

Track  1  accurately ripped (confidence 1)  [A4D848D8]
Track  2  accurately ripped (confidence 1)  [07AA5ECF]
Track  3  accurately ripped (confidence 1)  [427FD5BC]
Track  4  accurately ripped (confidence 1)  [6EB23B04]
Track  5  accurately ripped (confidence 1)  [8DF614EC]
Track  6  accurately ripped (confidence 1)  [20E51BF7]
Track  7  accurately ripped (confidence 1)  [6C563DA4]
Track  8  accurately ripped (confidence 1)  [207A7F34]
Track  9  accurately ripped (confidence 1)  [5D956BC4]
Track 10  accurately ripped (confidence 1)  [DC81448E]
Track 11  accurately ripped (confidence 1)  [A613744C]
Track 12  accurately ripped (confidence 1)  [64F16B19]
Track 13  accurately ripped (confidence 1)  [77C252C6]
Track 14  accurately ripped (confidence 1)  [49F86A2B]

All tracks accurately ripped

End of status report
Код:
Код:
-----------------------

DON'T MODIFY THIS FILE

-----------------------

PERFORMER: auCDtect Task Manager, ver. 1.5.1RC4 build 1.5.1.5
Copyright (c) 2008-2010 y-soft. All rights reserved
http:/y-soft.org

ANALYZER: auCDtect: CD records authenticity detector, version 0.8.2
Copyright (c) 2004 Oleg Berngardt. All rights reserved.
Copyright (c) 2004 Alexander Djourik. All rights reserved.

FILE: Chicago - O Christmas Three.flac
  Size: 334593167 Hash: 3277EED7FFD9D7C7FFC3E91DE928A1D0 Accuracy: -m0
  Conclusion: CDDA 100%
  Signature: BD017C2FC4BB41C52DCCD20B30D244CCFB55F13B
Правила, инструкции, FAQ!!!
Торрент  Добавлен [05 дек 2013, 10:37] Скачать торрент Магнет ссылка
Скачать торрент
[ Размер 14.04 КБ / Просмотров 30 ]

Статус  
 
Размер  330.54 МБ
Приватный: Нет (DHT включён)
.torrent скачан  0
 


     Отправить личное сообщение
   
Страница 1 из 1
Показать сообщения за:  Поле сортировки  
Начать новую тему Ответить на тему


Сейчас этот форум просматривают: нет зарегистрированных пользователей и гости: 0


Вы не можете начинать темы
Вы не можете отвечать на сообщения
Вы не можете редактировать свои сообщения
Вы не можете удалять свои сообщения
Вы не можете добавлять вложения

Перейти:  
cron
cron