Начать новую тему Ответить на тему
Статистика раздачи
Размер: 906.12 МБ | Добавлен: 14 май 2019, 16:48 | Скачали: 1
Сидеров: 6  [0 байт/сек]    Личеров: 2  [0 байт/сек]
Пред. тема | След. тема 

Автор
Сообщение

СообщениеДобавлено: 14 май 2019, 16:48 

Ответить с цитатой 

Caroline Spence - Mint Condition


Формат записи/Источник записи: [TR24][OF]
Наличие водяных знаков: Нет
Год издания: 2019
Жанр: Pop, Folk, Singer-Songwriter
Издатель (лейбл): Rounder Records
Продолжительность: 00:42:28
Наличие сканов в содержимом раздачи: Только обложка альбома
Контейнер: FLAC (*.flac)
Тип рипа: tracks
Разрядность: 24/96
Формат: PCM
Количество каналов: 2.0
Источник (релизер): qobuz.com
Треклист
01. What You Don’t Know (03:51)
02. Angels Or Los Angeles (04:36)
03. Song About A City (03:22)
04. Sometimes A Woman Is An Island (04:13)
05. Who’s Gonna Make My Mistakes (02:33)
06. Sit Here And Love Me (03:24)
07. Long Haul (04:02)
08. Wait On The Wine (04:18)
09. Who Are You (03:12)
10. Til You Find One (04:52)
11. Mint Condition (04:05)
Код:
foobar2000 1.4 / Dynamic Range Meter 1.1.1
log date: 2019-05-03 06:09:09
--------------------------------------------------------------------------------
Analyzed: Caroline Spence / Mint Condition
--------------------------------------------------------------------------------
DR         Peak         RMS     Duration Track
--------------------------------------------------------------------------------
DR7       -0.38 dB    -9.25 dB      3:52 01-What You Don’t Know
DR8       -0.38 dB   -11.17 dB      4:37 02-Angels Or Los Angeles
DR7       -0.38 dB    -9.39 dB      3:23 03-Song About A City
DR8       -0.40 dB   -11.95 dB      4:14 04-Sometimes A Woman Is An Island
DR8       -0.38 dB    -9.37 dB      2:36 05-Who’s Gonna Make My Mistakes
DR11      -0.40 dB   -14.87 dB      3:25 06-Sit Here And Love Me
DR7       -0.38 dB    -8.77 dB      4:01 07-Long Haul
DR9       -0.40 dB   -11.58 dB      4:21 08-Wait On The Wine
DR7       -0.40 dB   -10.82 dB      3:13 09-Who Are You
DR8       -0.40 dB   -10.55 dB      4:54 10-Til You Find One
DR10      -0.40 dB   -12.21 dB      4:02 11-Mint Condition
--------------------------------------------------------------------------------
Number of tracks:  11
Official DR value: DR8
Samplerate:        96000 Hz
Channels:          2
Bits per sample:   24
Bitrate:           2907 kbps
Codec:             FLAC
================================================================================
Over two full-lengths and one EP, Nashville's Caroline Spence has shown an uncanny knack for portraying the complexities of the human condition in poetically candid little vignettes of warm and weary Americana. Her second LP, 2017's Spades & Roses, earned enough respect and critical acclaim to net her a deal with Rounder Records, the veteran roots-driven label behind her third outing, Mint Condition. Produced by Dan Knobler (Lake Street Dive, Erin Rae), the 11-track set takes no great stylistic leaps, but offers a continued evolution of the journey Spence has been on since she debuted back in 2013. Her strengths as a storyteller play out over 11 well-crafted songs that alternately explore her own personal introspections or the twisting paths of those around her. As a songwriter, people remain Spence's ultimate source of inspiration, a trait she confesses to on the early standout "Song About a City," which name-drops various destinations along her route which she could never manage to immortalize in song. It's a clever little hook, though she's generally more prone to poignant observations like on the moving "Sometimes a Woman Is and Island" or "Sit Here and Love Me." Most of Mint Condition rolls by in an easy flow of gently strummed midtempo balladry with appropriately atmospheric electric guitar and piano support, though there are a handful of country-driven rockers that quicken the pace here and there. Opener "What You Don't Know" growls along with a particularly enchanting dark-hued chorus while the tuneful "Long Haul" adds a lovely bit of jangling county-pop sensibility to the collection. Closing out the album is the contemplative title cut whose choruses are supported to great effect by the willowy voice of the great Emmylou Harris, an artist to which Spence has received occasional comparisons. As with her previous albums there's nothing showy here, just quality songwriting sung and arranged with a subtlety that suits it.
Правила, инструкции, FAQ!!!
Торрент  Добавлен [14 май 2019, 16:48] Скачать торрент Магнет ссылка
Скачать торрент
[ Размер 18.87 КБ / Просмотров 42 ]

Статус
Проверен 
 
Размер  906.12 МБ
Приватный: Нет (DHT включён)
.torrent скачан  1
 


     Отправить личное сообщение
   
Страница 1 из 1
Показать сообщения за:  Поле сортировки  
Начать новую тему Ответить на тему


Сейчас этот форум просматривают: нет зарегистрированных пользователей и гости: 0


Вы не можете начинать темы
Вы не можете отвечать на сообщения
Вы не можете редактировать свои сообщения
Вы не можете удалять свои сообщения
Вы не можете добавлять вложения

Перейти:  
cron