Начать новую тему Ответить на тему
Статистика раздачи
Размер: 538.29 МБ | Добавлен: 16 мар 2014, 00:15 | Скачали: 0
Сидеров: 2  [0 байт/сек]    Личеров: 1  [0 байт/сек]
Пред. тема | След. тема 

Автор
Сообщение

СообщениеДобавлено: 16 мар 2014, 00:15 

Ответить с цитатой 

Bystander - Not So Innocent (1987)

Год: 1987
Страна-производитель диска: Germany
Издатель (лейбл): Long Island Records
Номер по каталогу #: LIRC 00052
Жанр: Melodic Rock/AOR
Продолжительность: 00:58:26

Кодек: FLAC(*.flac)
Битрейт: Lossless
Тип рипа: image+.cue
Спасибо: kolushew

Треклист:
1. Welcome to the Real World - 3:59
2. Running in Circles - 4:05
3. Prelude - 1:04
4. Desiree - 4:52
5. Love Games - 3:50
6. Let Me In - 4:00
7. I Can't Stop - 3:52
8. Out of the Night - 4:40
9. Someway Somehow - 4:29
10. You're History - 4:08
11. Momma Lao - 5:02
bonus tracks:
12. Real World (Dance Mix) - 4:27
13. What Do All the People Know - 4:22
14. All the Time in the World - 5:30
Код:
Код:
Exact Audio Copy V1.0 beta 3 from 29. August 2011

EAC extraction logfile from 27. December 2013, 18:10

Bystander / Not So Innocent

Used drive  : SlimtypeDVD A  DS8A5SH   Adapter: 0  ID: 1

Read mode               : Secure
Utilize accurate stream : Yes
Defeat audio cache      : Yes
Make use of C2 pointers : No

Read offset correction                      : 6
Overread into Lead-In and Lead-Out          : No
Fill up missing offset samples with silence : Yes
Delete leading and trailing silent blocks   : No
Null samples used in CRC calculations       : Yes
Used interface                              : Native Win32 interface for Win NT & 2000

Used output format              : User Defined Encoder
Selected bitrate                : 320 kBit/s
Quality                         : High
Add ID3 tag                     : No
Command line compressor         : C:\Program Files (x86)\Exact Audio Copy\Flac\flac.exe
Additional command line options : -V -8 -T "Date=%year%" -T "Genre=%genre%" %source%

TOC of the extracted CD

     Track |   Start  |  Length  | Start sector | End sector
    ---------------------------------------------------------
        1  |  0:00.00 |  3:59.45 |         0    |    17969
        2  |  3:59.45 |  4:05.60 |     17970    |    36404
        3  |  8:05.30 |  1:04.60 |     36405    |    41264
        4  |  9:10.15 |  4:52.02 |     41265    |    63166
        5  | 14:02.17 |  3:50.55 |     63167    |    80471
        6  | 17:52.72 |  4:00.23 |     80472    |    98494
        7  | 21:53.20 |  3:52.02 |     98495    |   115896
        8  | 25:45.22 |  4:40.65 |    115897    |   136961
        9  | 30:26.12 |  4:29.50 |    136962    |   157186
       10  | 34:55.62 |  4:08.25 |    157187    |   175811
       11  | 39:04.12 |  5:02.00 |    175812    |   198461
       12  | 44:06.12 |  4:27.45 |    198462    |   218531
       13  | 48:33.57 |  4:22.05 |    218532    |   238186
       14  | 52:55.62 |  5:30.13 |    238187    |   262949

Range status and errors

Selected range

     Filename D:\My Music\Bystander - 1987 Not So Innocent (Rock Classic Series)\Bystander - Not So Innocent.wav

     Peak level 97.7 %
     Extraction speed 1.8 X
     Range quality 100.0 %
     Test CRC 87928F01
     Copy CRC 87928F01
     Copy OK

No errors occurred

AccurateRip summary

Track  1  accurately ripped (confidence 2)  [268EDD96]  (AR v1)
Track  2  accurately ripped (confidence 2)  [9AEF6240]  (AR v1)
Track  3  accurately ripped (confidence 2)  [A30392FF]  (AR v1)
Track  4  accurately ripped (confidence 2)  [D9A5B42C]  (AR v1)
Track  5  accurately ripped (confidence 2)  [97D7F8D3]  (AR v1)
Track  6  accurately ripped (confidence 2)  [740709FD]  (AR v1)
Track  7  accurately ripped (confidence 2)  [6440379A]  (AR v1)
Track  8  accurately ripped (confidence 2)  [E814A092]  (AR v1)
Track  9  accurately ripped (confidence 2)  [C90A9100]  (AR v1)
Track 10  accurately ripped (confidence 2)  [DCE7A5E7]  (AR v1)
Track 11  accurately ripped (confidence 2)  [A3CDC80B]  (AR v1)
Track 12  accurately ripped (confidence 2)  [F9A202AA]  (AR v1)
Track 13  accurately ripped (confidence 2)  [D6E006F7]  (AR v1)
Track 14  accurately ripped (confidence 2)  [91AA4C92]  (AR v1)

All tracks accurately ripped

End of status report

==== Log checksum FFE1A64084CB39D6D185F5B173270035F27D37DEB271237593969D1DE0183FB1 ====
Код:
Код:
-----------------------

DON'T MODIFY THIS FILE

-----------------------

PERFORMER: auCDtect Task Manager, ver. 1.6.0 RC1 build 1.6.0.1
Copyright (c) 2008-2010 y-soft. All rights reserved
http:/y-soft.org

ANALYZER: auCDtect: CD records authenticity detector, version 0.8.2
Copyright (c) 2004 Oleg Berngardt. All rights reserved.
Copyright (c) 2004 Alexander Djourik. All rights reserved.

FILE: Bystander - Not So Innocent.flac
  Size: 462088707 Hash: 0123958E7172E124ED12916DB9FE6877 Accuracy: -m0
  Conclusion: CDDA 100%
  Signature: 0D3965CD0419F0C538534307828C215E90A90055
Код:
Код:
REM GENRE AOR
REM DATE 1987
REM DISCID CA0DB20E
REM COMMENT "ExactAudioCopy v1.0b3"
CATALOG 0000000000000
PERFORMER "Bystander"
TITLE "Not So Innocent"
FILE "Bystander - Not So Innocent.flac" WAVE
  TRACK 01 AUDIO
    TITLE "Welcome To The Real World"
    PERFORMER "Bystander"
    INDEX 01 00:00:00
  TRACK 02 AUDIO
    TITLE "Running In Circles"
    PERFORMER "Bystander"
    INDEX 00 03:58:74
    INDEX 01 03:59:45
  TRACK 03 AUDIO
    TITLE "Prelude"
    PERFORMER "Bystander"
    INDEX 00 08:03:57
    INDEX 01 08:05:30
  TRACK 04 AUDIO
    TITLE "Desiree"
    PERFORMER "Bystander"
    INDEX 01 09:10:15
  TRACK 05 AUDIO
    TITLE "Love Games"
    PERFORMER "Bystander"
    INDEX 00 14:01:65
    INDEX 01 14:02:17
  TRACK 06 AUDIO
    TITLE "Let Me In"
    PERFORMER "Bystander"
    INDEX 00 17:52:56
    INDEX 01 17:52:72
  TRACK 07 AUDIO
    TITLE "I Can't Stop"
    PERFORMER "Bystander"
    INDEX 00 21:51:58
    INDEX 01 21:53:20
  TRACK 08 AUDIO
    TITLE "Out Of The Night"
    PERFORMER "Bystander"
    INDEX 00 25:44:42
    INDEX 01 25:45:22
  TRACK 09 AUDIO
    TITLE "Someway Somehow"
    PERFORMER "Bystander"
    INDEX 00 30:25:40
    INDEX 01 30:26:12
  TRACK 10 AUDIO
    TITLE "You're History"
    PERFORMER "Bystander"
    INDEX 00 34:55:16
    INDEX 01 34:55:62
  TRACK 11 AUDIO
    TITLE "Momma Lao"
    PERFORMER "Bystander"
    INDEX 00 39:02:31
    INDEX 01 39:04:12
  TRACK 12 AUDIO
    TITLE "Real World (Dance Mix)"
    PERFORMER "Bystander"
    INDEX 00 44:03:50
    INDEX 01 44:06:12
  TRACK 13 AUDIO
    TITLE "What Do All The People Know"
    PERFORMER "Bystander"
    INDEX 00 48:32:24
    INDEX 01 48:33:57
  TRACK 14 AUDIO
    TITLE "All The Time In The World"
    PERFORMER "Bystander"
    INDEX 00 52:54:21
    INDEX 01 52:55:62

Правила, инструкции, FAQ!!!
Торрент  Добавлен [16 мар 2014, 00:15] Скачать торрент Магнет ссылка
Скачать торрент
[ Размер 12.21 КБ / Просмотров 15 ]

Статус  
 
Размер  538.29 МБ
Приватный: Нет (DHT включён)
.torrent скачан  0
 


     Отправить личное сообщение
   
Страница 1 из 1
Показать сообщения за:  Поле сортировки  
Начать новую тему Ответить на тему


Сейчас этот форум просматривают: нет зарегистрированных пользователей и гости: 0


Вы не можете начинать темы
Вы не можете отвечать на сообщения
Вы не можете редактировать свои сообщения
Вы не можете удалять свои сообщения
Вы не можете добавлять вложения

Перейти:  
cron
cron