Начать новую тему Ответить на тему
Статистика раздачи
Размер: 468.63 МБ | Добавлен: 16 мар 2014, 00:10 | Скачали: 0
Сидеров: 1  [0 байт/сек]    Личеров: 0  [0 байт/сек]
Пред. тема | След. тема 

Автор
Сообщение

СообщениеДобавлено: 16 мар 2014, 00:10 

Ответить с цитатой 

Bryan Ferry - The Bride Stripped Bare (1978/2007)

Год: 1978/2007
Страна-производитель диска: Japan
Издатель (лейбл): EMI Music Japan Inc ‎
Номер по каталогу #: VJCP-68816
Жанр: Glam Rock/Pop/Rock
Продолжительность: 00:41:47
Кодек: FLAC (*.flac)
Битрейт: Lossless
Тип рипа: image+.cue
Спасибо: bvstudio
Треклист:
01. Sign Of The Times
02. Can't Let Go
03. Hold On (I'm Coming)
04. The Same Old Blues
05. When She Walks In The Room
06. Take Me To The River
07. What Goes On
08. Carrickfergus
09. That's How Strong My Love Is
10. This Island Earth
Код:
Код:
Exact Audio Copy V1.0 beta 3 from 29. August 2011

EAC extraction logfile from 5. April 2013, 18:28

Bryan Ferry / The Bride Stripped Bare

Used drive  : Optiarc BD RW BD-5300S   Adapter: 3  ID: 0

Read mode               : Secure
Utilize accurate stream : Yes
Defeat audio cache      : Yes
Make use of C2 pointers : No

Read offset correction                      : 6
Overread into Lead-In and Lead-Out          : No
Fill up missing offset samples with silence : Yes
Delete leading and trailing silent blocks   : No
Null samples used in CRC calculations       : Yes
Used interface                              : Installed external ASPI interface

Used output format              : User Defined Encoder
Selected bitrate                : 1024 kBit/s
Quality                         : High
Add ID3 tag                     : No
Command line compressor         : C:\Program Files (x86)\Exact Audio Copy\Flac\flac.exe
Additional command line options : -8 -V -T "Date=%year%" -T "Genre=%genre%" -T "COMMENT=ripped by bvstudio®" %source%

TOC of the extracted CD

     Track |   Start  |  Length  | Start sector | End sector
    ---------------------------------------------------------
        1  |  0:00.00 |  2:28.05 |         0    |    11104
        2  |  2:28.05 |  5:13.45 |     11105    |    34624
        3  |  7:41.50 |  3:42.05 |     34625    |    51279
        4  | 11:23.55 |  3:21.13 |     51280    |    66367
        5  | 14:44.68 |  6:23.67 |     66368    |    95159
        6  | 21:08.60 |  4:27.68 |     95160    |   115252
        7  | 25:36.53 |  4:10.57 |    115253    |   134059
        8  | 29:47.35 |  3:46.73 |    134060    |   151082
        9  | 33:34.33 |  3:17.12 |    151083    |   165869
       10  | 36:51.45 |  4:55.70 |    165870    |   188064

Range status and errors

Selected range

     Filename F:\Bryan Ferry\1978 - The Bride Stripped Bare (Japan HDCD)\Bryan Ferry - The Bride Stripped Bare.wav

     Peak level 98.6 %
     Extraction speed 6.6 X
     Range quality 100.0 %
     Test CRC E57CEF55
     Copy CRC E57CEF55
     Copy OK

No errors occurred

AccurateRip summary

Track  1  accurately ripped (confidence 1)  [D534B1DC]  (AR v1)
Track  2  accurately ripped (confidence 1)  [9AA623A3]  (AR v1)
Track  3  accurately ripped (confidence 1)  [40FB25BC]  (AR v1)
Track  4  accurately ripped (confidence 1)  [9C911F05]  (AR v1)
Track  5  accurately ripped (confidence 1)  [6D54ED0F]  (AR v1)
Track  6  accurately ripped (confidence 1)  [2A7EA165]  (AR v1)
Track  7  accurately ripped (confidence 1)  [CACC46FE]  (AR v1)
Track  8  accurately ripped (confidence 1)  [53D6573A]  (AR v1)
Track  9  accurately ripped (confidence 1)  [A4725227]  (AR v1)
Track 10  accurately ripped (confidence 1)  [8490C8E0]  (AR v1)

All tracks accurately ripped

End of status report

---- CUETools DB Plugin V2.1.4

[CTDB TOCID: 2sKLmg1S19wbLpQoBfz_24hrcA8-] found
Submit result: 2sKLmg1S19wbLpQoBfz_24hrcA8- has been confirmed
Track | CTDB Status
  1   | (1/1) Accurately ripped
  2   | (1/1) Accurately ripped
  3   | (1/1) Accurately ripped
  4   | (1/1) Accurately ripped
  5   | (1/1) Accurately ripped
  6   | (1/1) Accurately ripped
  7   | (1/1) Accurately ripped
  8   | (1/1) Accurately ripped
  9   | (1/1) Accurately ripped
 10   | (1/1) Accurately ripped

==== Log checksum 9711C9D4F8434BA46F79AC1185FD83216BE232B7A6471AFD5FEA1B6979404CCF ====
Код:
Код:
-----------------------

DON'T MODIFY THIS FILE

-----------------------

PERFORMER: auCDtect Task Manager, ver. 1.6.0 RC1 build 1.6.0.1
Copyright (c) 2008-2010 y-soft. All rights reserved
http:/y-soft.org

ANALYZER: auCDtect: CD records authenticity detector, version 0.8.2
Copyright (c) 2004 Oleg Berngardt. All rights reserved.
Copyright (c) 2004 Alexander Djourik. All rights reserved.

FILE: Bryan Ferry - The Bride Stripped Bare.flac
  Size: 284267704 Hash: 5D8A566B3B7A3EBD0C93E4E3AAA81F53 Accuracy: -m0
  Conclusion: CDDA 100%
  Signature: A652B3866DCF608F332F4A20563F4137F896AA27
Код:
Код:
REM GENRE Rock
REM DATE 1978
REM DISCID 8309CB0A
REM COMMENT "ExactAudioCopy v1.0b3"
CATALOG 4988006857230
PERFORMER "Bryan Ferry"
TITLE "The Bride Stripped Bare"
FILE "Bryan Ferry - The Bride Stripped Bare.flac" WAVE
  TRACK 01 AUDIO
    TITLE "Sign Of The Times"
    PERFORMER "Bryan Ferry"
    ISRC GBAAA9900265
    INDEX 01 00:00:00
  TRACK 02 AUDIO
    TITLE "Can't Let Go"
    PERFORMER "Bryan Ferry"
    ISRC GBAAA9900266
    INDEX 01 02:28:05
  TRACK 03 AUDIO
    TITLE "Hold On (I'm Coming)"
    PERFORMER "Bryan Ferry"
    ISRC GBAAA9900267
    INDEX 01 07:41:50
  TRACK 04 AUDIO
    TITLE "The Same Old Blues"
    PERFORMER "Bryan Ferry"
    ISRC GBAAA9900268
    INDEX 00 11:23:23
    INDEX 01 11:23:55
  TRACK 05 AUDIO
    TITLE "When She Walks In The Room"
    PERFORMER "Bryan Ferry"
    ISRC GBAAA9900269
    INDEX 01 14:44:68
  TRACK 06 AUDIO
    TITLE "Take Me To The River"
    PERFORMER "Bryan Ferry"
    ISRC GBAAA9900270
    INDEX 00 21:08:53
    INDEX 01 21:08:60
  TRACK 07 AUDIO
    TITLE "What Goes On"
    PERFORMER "Bryan Ferry"
    ISRC GBAAA9900271
    INDEX 00 25:36:45
    INDEX 01 25:36:53
  TRACK 08 AUDIO
    TITLE "Carrickfergus"
    PERFORMER "Bryan Ferry"
    ISRC GBAAA9900272
    INDEX 00 29:47:20
    INDEX 01 29:47:35
  TRACK 09 AUDIO
    TITLE "That's How Strong My Love Is"
    PERFORMER "Bryan Ferry"
    ISRC GBAAA9900273
    INDEX 01 33:34:33
  TRACK 10 AUDIO
    TITLE "This Island Earth"
    PERFORMER "Bryan Ferry"
    ISRC GBAAA9900274
    INDEX 00 36:51:25
    INDEX 01 36:51:45

Правила, инструкции, FAQ!!!
Торрент  Добавлен [16 мар 2014, 00:10] Скачать торрент Магнет ссылка
Скачать торрент
[ Размер 19.57 КБ / Просмотров 44 ]

Статус  
 
Размер  468.63 МБ
Приватный: Нет (DHT включён)
.torrent скачан  0
 


     Отправить личное сообщение
   
Страница 1 из 1
Показать сообщения за:  Поле сортировки  
Начать новую тему Ответить на тему


Сейчас этот форум просматривают: нет зарегистрированных пользователей и гости: 0


Вы не можете начинать темы
Вы не можете отвечать на сообщения
Вы не можете редактировать свои сообщения
Вы не можете удалять свои сообщения
Вы не можете добавлять вложения

Перейти:  
cron
cron