Начать новую тему Ответить на тему
Статистика раздачи
Размер: 514.34 МБ | Добавлен: 16 мар 2014, 00:19 | Скачали: 8
Сидеров: 7  [0 байт/сек]    Личеров: 1  [0 байт/сек]
Пред. тема | След. тема 

Автор
Сообщение

СообщениеДобавлено: 16 мар 2014, 00:19 

Ответить с цитатой 

Bryan Ferry - The Best Of Bryan Ferry (2009)

Год: 2009
Жанр: Classic Rock, Art Rock
Продолжительность: 01:14:28
Производитель диска: USA
Кодек: FLAC
Битрейт: Lossless

Треклист:
1. A Hard Rain's A-Gonna Fall (US 7" Version) (2009 Digital Remaster) 3:24
2. The 'In' Crowd (1999 Digital Remaster) 4:34
3. Smoke Gets In Your Eyes (1999 Digital Remaster) 2:53
4. You Go To My Head (1999 Digital Remaster) 2:41
5. Let's Stick Together (1999 Digital Remaster) 2:59
6. The Price Of Love (1999 Digital Remaster) 3:26
7. This Is Tomorrow (1999 Digital Remaster) 3:38
8. Tokyo Joe (1999 Digital Remaster) 3:54
9. Can't Let Go (1999 Digital Remaster) 5:14
10. Slave To Love (7" Version) (2009 Digital Remaster) 4:00
11. Don't Stop The Dance (7" Version) (2009 Digital Remaster) 3:57
12. Windswept (2004 Digital Remaster) 4:36
13. Limbo (1999 Digital Remaster) 4:59
14. Kiss And Tell (Edit) 3:59
15. I Put A Spell On You (Single Mix) 3:55
16. Don't Want To Know (1999 Digital Remaster) 4:08
17. The Way You Look Tonight 3:36
18. Goddess Of Love 3:32
19. The Times They Are A-Changin' (Radio Edit) 3:00
20. A Fool For Love (Alternative Piano Version) 2:53
21. I Don't Want To Go On Without You (Brand New Composition) 3:23
Код:
Код:
Exact Audio Copy V0.99 prebeta 5 from 4. May 2009

EAC extraction logfile from 4. February 2010, 19:23

Bryan Ferry / The Best Of Bryan Ferry

Used drive : HL-DT-STDVD-RAM GH22NS30 Adapter: 0 ID: 1

Read mode : Secure
Utilize accurate stream : Yes
Defeat audio cache : Yes
Make use of C2 pointers : No

Read offset correction : 102
Overread into Lead-In and Lead-Out : No
Fill up missing offset samples with silence : Yes
Delete leading and trailing silent blocks : No
Null samples used in CRC calculations : Yes
Used interface : Native Win32 interface for Win NT & 2000
Gap handling : Appended to previous track

Used output format : User Defined Encoder
Selected bitrate : 768 kBit/s
Quality : High
Add ID3 tag : No
Command line compressor : C:\Program Files\Exact Audio Copy\FLAC\FLAC.EXE
Additional command line options : -6 -V -T "ARTIST=%a" -T "TITLE=%t" -T "ALBUM=%g" -T "DATE=%y" -T "TRACKNUMBER=%n" -T "GENRE=%m" -T "COMMENT=%e" %s -o %d

TOC of the extracted CD

Track | Start | Length | Start sector | End sector
---------------------------------------------------------
1 | 0:00.00 | 3:24.34 | 0 | 15333
2 | 3:24.34 | 4:34.16 | 15334 | 35899
3 | 7:58.50 | 2:53.28 | 35900 | 48902
4 | 10:52.03 | 2:41.64 | 48903 | 61041
5 | 13:33.67 | 2:59.66 | 61042 | 74532
6 | 16:33.58 | 3:26.09 | 74533 | 89991
7 | 19:59.67 | 3:38.50 | 89992 | 106391
8 | 23:38.42 | 3:54.71 | 106392 | 124012
9 | 27:33.38 | 5:14.17 | 124013 | 147579
10 | 32:47.55 | 4:00.66 | 147580 | 165645
11 | 36:48.46 | 3:57.70 | 165646 | 183490
12 | 40:46.41 | 4:36.42 | 183491 | 204232
13 | 45:23.08 | 4:59.34 | 204233 | 226691
14 | 50:22.42 | 3:59.07 | 226692 | 244623
15 | 54:21.49 | 3:55.08 | 244624 | 262256
16 | 58:16.57 | 4:08.24 | 262257 | 280880
17 | 62:25.06 | 3:36.69 | 280881 | 297149
18 | 66:02.00 | 3:32.24 | 297150 | 313073
19 | 69:34.24 | 3:00.34 | 313074 | 326607
20 | 72:34.58 | 3:23.21 | 326608 | 341853
21 | 75:58.04 | 2:53.02 | 341854 | 354830

Track 1

Filename D:\KINGSTON\АНГАР\макс_логистик\Мои документы\Making\A Hard Rain's A-Gonna Fall.wav

Pre-gap length 0:00:02.00

Peak level 98.0 %
Track quality 100.0 %
Test CRC 3C044479
Copy CRC 3C044479
Cannot be verified as accurate (confidence 4) [CFBD5307], AccurateRip returned [391219A3]
Copy OK

Track 2

Filename D:\KINGSTON\АНГАР\макс_логистик\Мои документы\Making\The 'In' Crowd.wav

Pre-gap length 0:00:00.40

Peak level 88.3 %
Track quality 100.0 %
Test CRC 03E5C8DC
Copy CRC 03E5C8DC
Cannot be verified as accurate (confidence 4) [7E7133FD], AccurateRip returned [C8D1B149]
Copy OK

Track 3

Filename D:\KINGSTON\АНГАР\макс_логистик\Мои документы\Making\Smoke Gets In Your Eyes.wav

Pre-gap length 0:00:00.64

Peak level 93.5 %
Track quality 100.0 %
Test CRC E6547483
Copy CRC E6547483
Cannot be verified as accurate (confidence 4) [50FDF7B1], AccurateRip returned [E90614D1]
Copy OK

Track 4

Filename D:\KINGSTON\АНГАР\макс_логистик\Мои документы\Making\You Go To My Head.wav

Pre-gap length 0:00:00.47

Peak level 94.1 %
Track quality 100.0 %
Test CRC 90391B08
Copy CRC 90391B08
Cannot be verified as accurate (confidence 4) [A008E99D], AccurateRip returned [46872959]
Copy OK

Track 5

Filename D:\KINGSTON\АНГАР\макс_логистик\Мои документы\Making\Let's Stick Together.wav

Pre-gap length 0:00:00.66

Peak level 93.1 %
Track quality 100.0 %
Test CRC FF6EB207
Copy CRC FF6EB207
Cannot be verified as accurate (confidence 4) [F17A7E2A], AccurateRip returned [CF8FC5C2]
Copy OK

Track 6

Filename D:\KINGSTON\АНГАР\макс_логистик\Мои документы\Making\Price Of Love.wav

Pre-gap length 0:00:01.29

Peak level 94.1 %
Track quality 100.0 %
Test CRC 66AF9136
Copy CRC 66AF9136
Cannot be verified as accurate (confidence 4) [9E3B3526], AccurateRip returned [322B3A76]
Copy OK

Track 7

Filename D:\KINGSTON\АНГАР\макс_логистик\Мои документы\Making\This Is Tomorrow.wav

Pre-gap length 0:00:01.06

Peak level 92.5 %
Track quality 100.0 %
Test CRC FDA3110C
Copy CRC FDA3110C
Cannot be verified as accurate (confidence 4) [F03FFE64], AccurateRip returned [33AADBAC]
Copy OK

Track 8

Filename D:\KINGSTON\АНГАР\макс_логистик\Мои документы\Making\Tokyo Joe.wav

Pre-gap length 0:00:01.09

Peak level 93.1 %
Track quality 100.0 %
Test CRC 5823F2C1
Copy CRC 5823F2C1
Cannot be verified as accurate (confidence 4) [1B62FC8A], AccurateRip returned [954BDF4A]
Copy OK

Track 9

Filename D:\KINGSTON\АНГАР\макс_логистик\Мои документы\Making\Can't Let Go.wav

Pre-gap length 0:00:00.73

Peak level 73.9 %
Track quality 100.0 %
Test CRC 03233331
Copy CRC 03233331
Cannot be verified as accurate (confidence 4) [5656290A], AccurateRip returned [6E835846]
Copy OK

Track 10

Filename D:\KINGSTON\АНГАР\макс_логистик\Мои документы\Making\Slave To Love.wav

Pre-gap length 0:00:00.45

Peak level 98.0 %
Track quality 100.0 %
Test CRC 92D33F0F
Copy CRC 92D33F0F
Cannot be verified as accurate (confidence 4) [82F84455], AccurateRip returned [FB682CFD]
Copy OK

Track 11

Filename D:\KINGSTON\АНГАР\макс_логистик\Мои документы\Making\Don't Stop The Dance.wav

Pre-gap length 0:00:00.47

Peak level 98.0 %
Track quality 100.0 %
Test CRC 75EF486D
Copy CRC 75EF486D
Cannot be verified as accurate (confidence 4) [C1A48B15], AccurateRip returned [A371C465]
Copy OK

Track 12

Filename D:\KINGSTON\АНГАР\макс_логистик\Мои документы\Making\Windswept.wav

Pre-gap length 0:00:00.63

Peak level 88.0 %
Track quality 100.0 %
Test CRC 719DEA18
Copy CRC 719DEA18
Cannot be verified as accurate (confidence 4) [7ECD9A57], AccurateRip returned [24B9F567]
Copy OK

Track 13

Filename D:\KINGSTON\АНГАР\макс_логистик\Мои документы\Making\Limbo.wav

Pre-gap length 0:00:00.71

Peak level 97.5 %
Track quality 100.0 %
Test CRC 2A69B709
Copy CRC 2A69B709
Cannot be verified as accurate (confidence 4) [6BD253AB], AccurateRip returned [7E3BE5F3]
Copy OK

Track 14

Filename D:\KINGSTON\АНГАР\макс_логистик\Мои документы\Making\Kiss And Tell.wav

Pre-gap length 0:00:01.09

Peak level 98.0 %
Track quality 99.9 %
Test CRC F2FB72B1
Copy CRC F2FB72B1
Cannot be verified as accurate (confidence 4) [B123F477], AccurateRip returned [5A7DCA8F]
Copy OK

Track 15

Filename D:\KINGSTON\АНГАР\макс_логистик\Мои документы\Making\I Put A Spell On You.wav

Pre-gap length 0:00:00.64

Peak level 97.7 %
Track quality 99.9 %
Test CRC 19F56975
Copy CRC 19F56975
Cannot be verified as accurate (confidence 4) [433F1585], AccurateRip returned [8792E80D]
Copy OK

Track 16

Filename D:\KINGSTON\АНГАР\макс_логистик\Мои документы\Making\Don't Want To Know.wav

Pre-gap length 0:00:00.43

Peak level 76.8 %
Track quality 100.0 %
Test CRC 58EFF0D4
Copy CRC 58EFF0D4
Cannot be verified as accurate (confidence 4) [99014AB3], AccurateRip returned [658454D3]
Copy OK

Track 17

Filename D:\KINGSTON\АНГАР\макс_логистик\Мои документы\Making\The Way You Look Tonight.wav

Pre-gap length 0:00:01.22

Peak level 99.5 %
Track quality 100.0 %
Test CRC E9AA2F34
Copy CRC E9AA2F34
Cannot be verified as accurate (confidence 4) [CDB31CDC], AccurateRip returned [0642D470]
Copy OK

Track 18

Filename D:\KINGSTON\АНГАР\макс_логистик\Мои документы\Making\Goddess Of Love.wav

Pre-gap length 0:00:02.02

Peak level 79.6 %
Track quality 100.0 %
Test CRC 7EA96150
Copy CRC 7EA96150
Cannot be verified as accurate (confidence 4) [90A1E59A], AccurateRip returned [F1F2BBAE]
Copy OK

Track 19

Filename D:\KINGSTON\АНГАР\макс_логистик\Мои документы\Making\The Times They Are A-Changin'.wav

Pre-gap length 0:00:00.67

Peak level 83.1 %
Track quality 100.0 %
Test CRC F9BBF921
Copy CRC F9BBF921
Cannot be verified as accurate (confidence 4) [13DE52A6], AccurateRip returned [558E5302]
Copy OK

Track 20

Filename D:\KINGSTON\АНГАР\макс_логистик\Мои документы\Making\A Fool For Love - Piano Version.wav

Pre-gap length 0:00:02.21

Peak level 98.0 %
Track quality 100.0 %
Test CRC F2EC2E5E
Copy CRC F2EC2E5E
Cannot be verified as accurate (confidence 4) [BBF17395], AccurateRip returned [AED8A569]
Copy OK

Track 21

Filename D:\KINGSTON\АНГАР\макс_логистик\Мои документы\Making\I Don't Want To Go On Without You.wav

Pre-gap length 0:00:00.21

Peak level 98.0 %
Track quality 99.9 %
Test CRC 953C2567
Copy CRC 953C2567
Cannot be verified as accurate (confidence 5) [6C37C1D6], AccurateRip returned [9700C642]
Copy OK

No tracks could be verified as accurate
You may have a different pressing from the one(s) in the database

No errors occurred

End of status report
Код:
Код:
-----------------------

DON'T MODIFY THIS FILE

-----------------------

PERFORMER: auCDtect Task Manager, ver. 1.6.0 RC1 build 1.6.0.1
Copyright (c) 2008-2010 y-soft. All rights reserved
http:/y-soft.org

ANALYZER: auCDtect: CD records authenticity detector, version 0.8.2
Copyright (c) 2004 Oleg Berngardt. All rights reserved.
Copyright (c) 2004 Alexander Djourik. All rights reserved.

FILE: 21. I Don't Want To Go On Without You.flac
  Size: 14569171 Hash: 79F896E3EEFF714D3A134484049ABC9F Accuracy: -m0
  Conclusion: MPEG 79%
  Signature: 6C6E187C881A8147B29C5DE9C5B35F047AFA0F88
FILE: 20. A Fool For Love - Piano Version.flac
  Size: 21169171 Hash: 44D19334A658EBA5AE666D4CC5C4D3F6 Accuracy: -m0
  Conclusion: CDDA 99%
  Signature: 086465D2272D5E7C97FC1C7F1BAEF617EEE7E862
FILE: 19. The Times They Are A-Changin'.flac
  Size: 20367422 Hash: A4D1E154D1CCE1B5DF3B2393E259099A Accuracy: -m0
  Conclusion: CDDA 100%
  Signature: 747907B524AA3CB3932F103D717BB4C573719FB8
FILE: 18. Goddess Of Love.flac
  Size: 24906008 Hash: FF0A6AA8D442DF61334090A6CA08C417 Accuracy: -m0
  Conclusion: CDDA 100%
  Signature: 08C17C40D20F25F1627378067E05D8E63472A5CA
FILE: 17. The Way You Look Tonight.flac
  Size: 21512607 Hash: E4E69F1935D255CDB346FEDA3E220B7F Accuracy: -m0
  Conclusion: CDDA 100%
  Signature: 5801CF0E124CFAF68A650097AB36549D7BC7D0D0
FILE: 16. Don't Want To Know.flac
  Size: 28676822 Hash: 758A828A524281218FBBEE3DDDE78F97 Accuracy: -m0
  Conclusion: CDDA 100%
  Signature: FE90A0A7C3E739F5D61AA08F6BBFF39E0E02D26D
FILE: 15. I Put A Spell On You.flac
  Size: 27826614 Hash: 35A2AC90355E5898EAE43AC9C18ED735 Accuracy: -m0
  Conclusion: CDDA 100%
  Signature: 0BFB91FCDC6CCA7E1C12D0D813548698AE7D53DB
FILE: 14. Kiss And Tell.flac
  Size: 29371679 Hash: 6674B7CBDC8EA3BF6F47AFE57F1896CD Accuracy: -m0
  Conclusion: CDDA 100%
  Signature: BE5F0131E5CAD6AA0B77B97D9097EDD8E0C404AB
FILE: 13. Limbo.flac
  Size: 34983536 Hash: 6E26E957EA3019837BCC9FE20F625ED5 Accuracy: -m0
  Conclusion: CDDA 100%
  Signature: 131B594C3B0275BC5C87C9145972E12194CBFB2A
FILE: 12. Windswept.flac
  Size: 31205768 Hash: 05F8544D0BC760A5DD735BB7EFD44AD9 Accuracy: -m0
  Conclusion: CDDA 99%
  Signature: 43ECA7E4439C6456809CA030327156C1451D1263
FILE: 11. Don't Stop The Dance.flac
  Size: 27790121 Hash: 8F27A8CB1EB265B6633835E62037937E Accuracy: -m0
  Conclusion: CDDA 100%
  Signature: 9DB46C40FD2D9AE03FC268BEBFD002005A303BE1
FILE: 10. Slave To Love.flac
  Size: 28065675 Hash: 3E3FB0A4E8EB605038D34FD33FFCFF82 Accuracy: -m0
  Conclusion: CDDA 100%
  Signature: BA60024C5545E0A8D9BBE64FF963B32C4EC48E72
FILE: 09. Can't Let Go.flac
  Size: 38829037 Hash: 0F82D7F5FA47A04D57135157122D957B Accuracy: -m0
  Conclusion: CDDA 99%
  Signature: 643674E9FB0F7A619A6A0C69A63B2F13B41D400F
FILE: 08. Tokyo Joe.flac
  Size: 28098881 Hash: E64A19F0FA15296EE8225C91CCC075B5 Accuracy: -m0
  Conclusion: CDDA 100%
  Signature: 24EFD6B24627BE25D4A01B9AFA3F28343B9E1993
FILE: 07. This Is Tomorrow.flac
  Size: 23395680 Hash: EA36B0BB101BAF396751150386D9CDB6 Accuracy: -m0
  Conclusion: CDDA 99%
  Signature: A47C93F6EAA34BFBEF6D163F7D7894AF87BACCC6
FILE: 06. Price Of Love.flac
  Size: 24712597 Hash: 857EACEED0577010CB73E0FB919C00B6 Accuracy: -m0
  Conclusion: CDDA 100%
  Signature: B5294A5374C15A022B3842821B01FBF8DBED0258
FILE: 05. Let's Stick Together.flac
  Size: 21763393 Hash: E5AB5D96A9AE2FCC37AD1BC0EC08AE44 Accuracy: -m0
  Conclusion: CDDA 100%
  Signature: B8458B71CBFE64D8E3F076CF25E827E740D10277
FILE: 04. You Go To My Head.flac
  Size: 16487637 Hash: D85CC37CE8DE14CD4D80C12842EC2B44 Accuracy: -m0
  Conclusion: CDDA 100%
  Signature: 4EF233DB13186E45F3DD1A5742720DAD235DA1AA
FILE: 03. Smoke Gets In Your Eyes.flac
  Size: 19028426 Hash: DF02FD1EA8D9498C2403BD23841222D1 Accuracy: -m0
  Conclusion: CDDA 100%
  Signature: 366FC4450A19B26E8790D020BBEBC02A9977B020
FILE: 02. The 'In' Crowd.flac
  Size: 31810429 Hash: 5028E8D7F0792539ACEE43DF02231474 Accuracy: -m0
  Conclusion: CDDA 100%
  Signature: 64E6F1CB49D29F5B483045853FC751054BFAA878
FILE: 01. A Hard Rain's A-Gonna Fall.flac
  Size: 24345356 Hash: 28E09B24FFC5162F17249C25D5FD3632 Accuracy: -m0
  Conclusion: CDDA 100%
  Signature: 53D6D361381DB6E8C69DE6F55AD72078374E521F
Правила, инструкции, FAQ!!!
Торрент  Добавлен [16 мар 2014, 00:19] Скачать торрент Магнет ссылка
Скачать торрент
[ Размер 12.22 КБ / Просмотров 218 ]

Статус  
 
Размер  514.34 МБ
Приватный: Нет (DHT включён)
.torrent скачан  8
 


     Отправить личное сообщение
   
Страница 1 из 1
Показать сообщения за:  Поле сортировки  
Начать новую тему Ответить на тему


Сейчас этот форум просматривают: нет зарегистрированных пользователей и гости: 0


Вы не можете начинать темы
Вы не можете отвечать на сообщения
Вы не можете редактировать свои сообщения
Вы не можете удалять свои сообщения
Вы не можете добавлять вложения

Перейти:  
cron