Начать новую тему Ответить на тему
Статистика раздачи
Размер: 486.58 МБ | Добавлен: 16 мар 2014, 00:10 | Скачали: 0
Сидеров: 1  [0 байт/сек]    Личеров: 0  [0 байт/сек]
Пред. тема | След. тема 

Автор
Сообщение

СообщениеДобавлено: 16 мар 2014, 00:10 

Ответить с цитатой 

Bryan Ferry - In Your Mind (1977/2007)

Год: 1977/2007
Страна-производитель диска: Japan
Издатель (лейбл): EMI Music Japan Inc ‎
Номер по каталогу #: VJCP-68815
Жанр: Glam Rock/Pop/Rock
Продолжительность: 00:36:09
Кодек: FLAC (*.flac)
Битрейт: Lossless
Тип рипа: image+.cue
Спасибо: bvstudio
Третий сольный диск Ферри и первый, включающий только его собственные вещи. В целом - спокойная, мелодичная, хорошо записанная, хорошо аранжированная и хорошо сыгранная музыка. Музыканты - Крис Спеддинг, Фил Манзанера, Джон Уэттон, Пол Томпсон.
Треклист:
01. This Is Tomorrow
02. All Night Operator
03. One Kiss
04. Love Me Madly Again
05. Tokyo Joe
06. Party Doll
07. Rock Of Ages
08. In Your Mind
Код:
Код:
Exact Audio Copy V1.0 beta 3 from 29. August 2011

EAC extraction logfile from 5. April 2013, 18:10

Bryan Ferry / In Your Mind

Used drive  : Optiarc BD RW BD-5300S   Adapter: 3  ID: 0

Read mode               : Secure
Utilize accurate stream : Yes
Defeat audio cache      : Yes
Make use of C2 pointers : No

Read offset correction                      : 6
Overread into Lead-In and Lead-Out          : No
Fill up missing offset samples with silence : Yes
Delete leading and trailing silent blocks   : No
Null samples used in CRC calculations       : Yes
Used interface                              : Installed external ASPI interface

Used output format              : User Defined Encoder
Selected bitrate                : 1024 kBit/s
Quality                         : High
Add ID3 tag                     : No
Command line compressor         : C:\Program Files (x86)\Exact Audio Copy\Flac\flac.exe
Additional command line options : -8 -V -T "Date=%year%" -T "Genre=%genre%" -T "COMMENT=ripped by bvstudio®" %source%

TOC of the extracted CD

     Track |   Start  |  Length  | Start sector | End sector
    ---------------------------------------------------------
        1  |  0:00.00 |  3:40.10 |         0    |    16509
        2  |  3:40.10 |  3:08.67 |     16510    |    30676
        3  |  6:49.02 |  3:35.70 |     30677    |    46871
        4  | 10:24.72 |  7:26.35 |     46872    |    80356
        5  | 17:51.32 |  3:55.43 |     80357    |    98024
        6  | 21:47.00 |  4:32.07 |     98025    |   118431
        7  | 26:19.07 |  4:31.13 |    118432    |   138769
        8  | 30:50.20 |  5:18.57 |    138770    |   162676

Range status and errors

Selected range

     Filename F:\Bryan Ferry\1977 - In Your Mind (Japan HDCD)\Bryan Ferry - In Your Mind.wav

     Peak level 98.1 %
     Extraction speed 2.9 X
     Range quality 100.0 %
     Test CRC 5E7086E7
     Copy CRC 5E7086E7
     Copy OK

No errors occurred

AccurateRip summary

Track  1  accurately ripped (confidence 2)  [83D93558]  (AR v1)
Track  2  accurately ripped (confidence 2)  [396A2015]  (AR v1)
Track  3  accurately ripped (confidence 2)  [53261842]  (AR v1)
Track  4  accurately ripped (confidence 2)  [F19CB8EB]  (AR v1)
Track  5  accurately ripped (confidence 2)  [F0024945]  (AR v1)
Track  6  accurately ripped (confidence 2)  [EA2F5258]  (AR v1)
Track  7  accurately ripped (confidence 2)  [8C316872]  (AR v1)
Track  8  accurately ripped (confidence 2)  [0984E260]  (AR v1)

All tracks accurately ripped

End of status report

---- CUETools DB Plugin V2.1.4

[CTDB TOCID: PCfOWiPtwp8yzQ894zqWMbBQeQ4-] found
Submit result: PCfOWiPtwp8yzQ894zqWMbBQeQ4- has been confirmed
Track | CTDB Status
  1   | (5/5) Accurately ripped
  2   | (5/5) Accurately ripped
  3   | (5/5) Accurately ripped
  4   | (5/5) Accurately ripped
  5   | (5/5) Accurately ripped
  6   | (5/5) Accurately ripped
  7   | (5/5) Accurately ripped
  8   | (5/5) Accurately ripped

==== Log checksum 43D5D8C26AB0FF1408591DC6948BD5C5BCA9DB7E96D8B5A979D22366D01E42FC ====
Код:
Код:
-----------------------

DON'T MODIFY THIS FILE

-----------------------

PERFORMER: auCDtect Task Manager, ver. 1.6.0 RC1 build 1.6.0.1
Copyright (c) 2008-2010 y-soft. All rights reserved
http:/y-soft.org

ANALYZER: auCDtect: CD records authenticity detector, version 0.8.2
Copyright (c) 2004 Oleg Berngardt. All rights reserved.
Copyright (c) 2004 Alexander Djourik. All rights reserved.

FILE: Bryan Ferry - In Your Mind.flac
  Size: 249283389 Hash: 0609CA1B0E7E87DE7B172B7624806864 Accuracy: -m0
  Conclusion: CDDA 100%
  Signature: 513C2C4AE1E181FE6DDAD4E9C0446B6A71DA5C10
Код:
Код:
REM GENRE Rock
REM DATE 1977
REM DISCID 53087908
REM COMMENT "ExactAudioCopy v1.0b3"
CATALOG 4988006857223
PERFORMER "Bryan Ferry"
TITLE "In Your Mind"
FILE "Bryan Ferry - In Your Mind.flac" WAVE
  TRACK 01 AUDIO
    TITLE "This Is Tomorrow"
    PERFORMER "Bryan Ferry"
    ISRC GBAAA9900245
    INDEX 01 00:00:00
  TRACK 02 AUDIO
    TITLE "All Night Operator"
    PERFORMER "Bryan Ferry"
    ISRC GBAAA9900246
    INDEX 00 03:40:05
    INDEX 01 03:40:10
  TRACK 03 AUDIO
    TITLE "One Kiss"
    PERFORMER "Bryan Ferry"
    ISRC GBAAA9900247
    INDEX 00 06:47:67
    INDEX 01 06:49:02
  TRACK 04 AUDIO
    TITLE "Love Me Madly Again"
    PERFORMER "Bryan Ferry"
    ISRC GBAAA9900248
    INDEX 01 10:24:72
  TRACK 05 AUDIO
    TITLE "Tokyo Joe"
    PERFORMER "Bryan Ferry"
    ISRC GBAAA9900249
    INDEX 00 17:50:42
    INDEX 01 17:51:32
  TRACK 06 AUDIO
    TITLE "Party Doll"
    PERFORMER "Bryan Ferry"
    ISRC GBAAA9900250
    INDEX 00 21:45:37
    INDEX 01 21:47:00
  TRACK 07 AUDIO
    TITLE "Rock Of Ages"
    PERFORMER "Bryan Ferry"
    ISRC GBAAA9900251
    INDEX 00 26:18:25
    INDEX 01 26:19:07
  TRACK 08 AUDIO
    TITLE "In Your Mind"
    PERFORMER "Bryan Ferry"
    ISRC GBAAA9900252
    INDEX 00 30:49:07
    INDEX 01 30:50:20

Правила, инструкции, FAQ!!!
Торрент  Добавлен [16 мар 2014, 00:10] Скачать торрент Магнет ссылка
Скачать торрент
[ Размер 20.31 КБ / Просмотров 51 ]

Статус  
 
Размер  486.58 МБ
Приватный: Нет (DHT включён)
.torrent скачан  0
 


     Отправить личное сообщение
   
Страница 1 из 1
Показать сообщения за:  Поле сортировки  
Начать новую тему Ответить на тему


Сейчас этот форум просматривают: нет зарегистрированных пользователей и гости: 0


Вы не можете начинать темы
Вы не можете отвечать на сообщения
Вы не можете редактировать свои сообщения
Вы не можете удалять свои сообщения
Вы не можете добавлять вложения

Перейти:  
cron
cron