Начать новую тему Ответить на тему
Статистика раздачи
Размер: 967.03 МБ | Добавлен: 16 мар 2014, 00:21 | Скачали: 0
Сидеров: 2  [0 байт/сек]    Личеров: 0  [0 байт/сек]
Пред. тема | След. тема 

Автор
Сообщение

СообщениеДобавлено: 16 мар 2014, 00:21 

Ответить с цитатой 

Bryan Adams - Australian Tour Edition (2013)


Год:
2013 • Жанр: Rock • Продолжительность: 02:18:01
Лейбл: Universal Music • Каталожный №: 5342256 • Сканы: Комплект
Кодек: FLAC (tracks+.cue) • Битрейт: Lossless
Пpодолжительность: 01:11:16
Треклист:
01. Summer Of '69 (Album Version) [3:38]
02. (Everything I Do) I Do It For You (Album Version) [6:35]
03. Heaven (Album Version) [4:05]
04. When You're Gone (Album Version) [3:27]
05. All For Love (Live From The Royal Albert Hall 2012) [3:37]
06. Have You Ever Really Loved A Woman? (Don Juan DeMarco Soundtrack Version) [4:52]
07. Run To You (Album Version) [3:55]
08. Please Forgive Me (Album Version) [5:57]
09. House Arrest (Live From The Montreal Forum 2012) [3:34]
10. Flying (Live At The Sydney Opera House 2011) [3:23]
11. The Only Thing That Looks Good On Me Is You (Album Version) [3:39]
12. Can't Stop This Thing We Started (Album Version) [4:29]
13. When You Love Someone (MTV Unplugged Alternate Take) [3:11]
14. Cuts Like A Knife (Album Version) [5:16]
15. Straight From The Heart (Live At The Sydney Opera House 2011) [3:29]
16. Back To You (MTV Unplugged Version) [4:36]
17. 18 Til I Die (Album Version) [3:32]

Код:
Код:
REM GENRE Rock
REM DATE 2013
REM DISCID F910B311
REM COMMENT "ExactAudioCopy v1.0b3"
PERFORMER "Bryan Adams"
TITLE "Australian Tour Edition 2013 CD 1]"
FILE "01 Bryan Adams - Summer Of '69 (Album Version).wav" WAVE
  TRACK 01 AUDIO
    TITLE "Summer Of '69 (Album Version)"
    PERFORMER "Bryan Adams"
    INDEX 01 00:00:00
  TRACK 02 AUDIO
    TITLE "(Everything I Do) I Do It For You (Album Version)"
    PERFORMER "Bryan Adams"
    INDEX 00 03:36:52
FILE "02 Bryan Adams - (Everything I Do) I Do It For You (Album Version).wav" WAVE
    INDEX 01 00:00:00
  TRACK 03 AUDIO
    TITLE "Heaven (Album Version)"
    PERFORMER "Bryan Adams"
    INDEX 00 06:33:31
FILE "03 Bryan Adams - Heaven (Album Version).wav" WAVE
    INDEX 01 00:00:00
  TRACK 04 AUDIO
    TITLE "When You're Gone (Album Version)"
    PERFORMER "Bryan Adams"
    INDEX 00 04:03:67
FILE "04 Bryan Adams - When You're Gone (Album Version).wav" WAVE
    INDEX 01 00:00:00
  TRACK 05 AUDIO
    TITLE "All For Love (Live From The Royal Albert Hall 2012)"
    PERFORMER "Bryan Adams"
    INDEX 00 03:24:54
FILE "05 Bryan Adams - All For Love (Live From The Royal Albert Hall 2012).wav" WAVE
    INDEX 01 00:00:00
  TRACK 06 AUDIO
    TITLE "Have You Ever Really Loved A Woman? (Don Juan DeMarco Soundtrack Version)"
    PERFORMER "Bryan Adams"
    INDEX 00 03:35:71
FILE "06 Bryan Adams - Have You Ever Really Loved A Woman (Don Juan DeMarco Soundtrack Version).wav" WAVE
    INDEX 01 00:00:00
  TRACK 07 AUDIO
    TITLE "Run To You (Album Version)"
    PERFORMER "Bryan Adams"
    INDEX 00 04:51:47
FILE "07 Bryan Adams - Run To You (Album Version).wav" WAVE
    INDEX 01 00:00:00
  TRACK 08 AUDIO
    TITLE "Please Forgive Me (Album Version)"
    PERFORMER "Bryan Adams"
    INDEX 00 03:53:61
FILE "08 Bryan Adams - Please Forgive Me (Album Version).wav" WAVE
    INDEX 01 00:00:00
  TRACK 09 AUDIO
    TITLE "House Arrest (Live From The Montreal Forum 2012)"
    PERFORMER "Bryan Adams"
    INDEX 00 05:55:47
FILE "09 Bryan Adams - House Arrest (Live From The Montreal Forum 2012).wav" WAVE
    INDEX 01 00:00:00
  TRACK 10 AUDIO
    TITLE "Flying (Live At The Sydney Opera House 2011)"
    PERFORMER "Bryan Adams"
    INDEX 00 03:32:62
FILE "10 Bryan Adams - Flying (Live At The Sydney Opera House 2011).wav" WAVE
    INDEX 01 00:00:00
  TRACK 11 AUDIO
    TITLE "The Only Thing That Looks Good On Me Is You (Album Version)"
    PERFORMER "Bryan Adams"
    INDEX 00 03:22:26
FILE "11 Bryan Adams - The Only Thing That Looks Good On Me Is You (Album Version).wav" WAVE
    INDEX 01 00:00:00
  TRACK 12 AUDIO
    TITLE "Can't Stop This Thing We Started (Album Version)"
    PERFORMER "Bryan Adams"
    INDEX 00 03:37:42
FILE "12 Bryan Adams - Can't Stop This Thing We Started (Album Version).wav" WAVE
    INDEX 01 00:00:00
  TRACK 13 AUDIO
    TITLE "When You Love Someone (MTV Unplugged Alternate Take)"
    PERFORMER "Bryan Adams"
    INDEX 00 04:28:23
FILE "13 Bryan Adams - When You Love Someone (MTV Unplugged Alternate Take).wav" WAVE
    INDEX 01 00:00:00
  TRACK 14 AUDIO
    TITLE "Cuts Like A Knife (Album Version)"
    PERFORMER "Bryan Adams"
    INDEX 00 03:10:56
FILE "14 Bryan Adams - Cuts Like A Knife (Album Version).wav" WAVE
    INDEX 01 00:00:00
FILE "15 Bryan Adams - Straight From The Heart (Live At The Sydney Opera House 2011).wav" WAVE
  TRACK 15 AUDIO
    TITLE "Straight From The Heart (Live At The Sydney Opera House 2011)"
    PERFORMER "Bryan Adams"
    INDEX 01 00:00:00
  TRACK 16 AUDIO
    TITLE "Back To You (MTV Unplugged Version)"
    PERFORMER "Bryan Adams"
    INDEX 00 03:27:63
FILE "16 Bryan Adams - Back To You (MTV Unplugged Version).wav" WAVE
    INDEX 01 00:00:00
  TRACK 17 AUDIO
    TITLE "18 Til I Die (Album Version)"
    PERFORMER "Bryan Adams"
    INDEX 00 04:35:03
FILE "17 Bryan Adams - 18 Til I Die (Album Version).wav" WAVE
    INDEX 01 00:00:00
Код:
Код:
Exact Audio Copy V1.0 beta 3 from 29. August 2011

EAC extraction logfile from 12. December 2013, 23:23

Bryan Adams / Australian Tour Edition 2013 CD 1]

Used drive  : PIONEER BD-RW   BDR-207D   Adapter: 0  ID: 3

Read mode               : Secure
Utilize accurate stream : Yes
Defeat audio cache      : Yes
Make use of C2 pointers : No

Read offset correction                      : 667
Overread into Lead-In and Lead-Out          : No
Fill up missing offset samples with silence : Yes
Delete leading and trailing silent blocks   : No
Null samples used in CRC calculations       : Yes
Used interface                              : Native Win32 interface for Win NT & 2000
Gap handling                                : Appended to previous track

Used output format              : User Defined Encoder
Selected bitrate                : 1024 kBit/s
Quality                         : High
Add ID3 tag                     : No
Command line compressor         : C:\Program Files (x86)\Exact Audio Copy\FLAC\FLAC.EXE
Additional command line options : -6 -V -T "ARTIST=%artist%" -T "TITLE=%title%" -T "ALBUM=%albumtitle%" -T "DATE=%year%" -T "TRACKNUMBER=%tracknr%" -T "GENRE=%genre%" -T "COMMENT=%comment%" -T "BAND=%albuminterpret%" -T "ALBUMARTIST=%albuminterpret%" -T "COMPOSER=%composer%" %haslyrics%--tag-from-file=LYRICS="%lyricsfile%"%haslyrics% -T "DISCNUMBER=%cdnumber%" -T "TOTALDISCS=%totalcds%" -T "TOTALTRACKS=%numtracks%" %hascover%--picture="%coverfile%"%hascover% %source% -o %dest%

TOC of the extracted CD

     Track |   Start  |  Length  | Start sector | End sector
    ---------------------------------------------------------
        1  |  0:00.00 |  3:37.49 |         0    |    16323
        2  |  3:37.49 |  6:34.55 |     16324    |    45928
        3  | 10:12.29 |  4:05.30 |     45929    |    64333
        4  | 14:17.59 |  3:26.48 |     64334    |    79831
        5  | 17:44.32 |  3:37.15 |     79832    |    96121
        6  | 21:21.47 |  4:52.37 |     96122    |   118058
        7  | 26:14.09 |  3:54.40 |    118059    |   135648
        8  | 30:08.49 |  5:56.44 |    135649    |   162392
        9  | 36:05.18 |  3:34.30 |    162393    |   178472
       10  | 39:39.48 |  3:23.25 |    178473    |   193722
       11  | 43:02.73 |  3:38.40 |    193723    |   210112
       12  | 46:41.38 |  4:28.71 |    210113    |   230283
       13  | 51:10.34 |  3:11.36 |    230284    |   244644
       14  | 54:21.70 |  5:16.36 |    244645    |   268380
       15  | 59:38.31 |  3:29.20 |    268381    |   284075
       16  | 63:07.51 |  4:36.17 |    284076    |   304792
       17  | 67:43.68 |  3:31.64 |    304793    |   320681

Track  1

     Filename H:\EAC FILES\01 Bryan Adams - Summer Of '69 (Album Version).wav

     Pre-gap length  0:00:02.00

     Peak level 100.0 %
     Extraction speed 4.7 X
     Track quality 100.0 %
     Test CRC 8D100977
     Copy CRC 8D100977
     Accurately ripped (confidence 4)  [70B20C50]  (AR v2)
     Copy OK

Track  2

     Filename H:\EAC FILES\02 Bryan Adams - (Everything I Do) I Do It For You (Album Version).wav

     Pre-gap length  0:00:00.72

     Peak level 100.0 %
     Extraction speed 5.1 X
     Track quality 99.9 %
     Test CRC 1801EC61
     Copy CRC 1801EC61
     Accurately ripped (confidence 4)  [352BBDF8]  (AR v2)
     Copy OK

Track  3

     Filename H:\EAC FILES\03 Bryan Adams - Heaven (Album Version).wav

     Pre-gap length  0:00:01.24

     Peak level 100.0 %
     Extraction speed 5.8 X
     Track quality 100.0 %
     Test CRC 549162B4
     Copy CRC 549162B4
     Accurately ripped (confidence 4)  [4BDDF441]  (AR v2)
     Copy OK

Track  4

     Filename H:\EAC FILES\04 Bryan Adams - When You're Gone (Album Version).wav

     Pre-gap length  0:00:01.38

     Peak level 98.0 %
     Extraction speed 5.9 X
     Track quality 100.0 %
     Test CRC 67B5FCE0
     Copy CRC 67B5FCE0
     Accurately ripped (confidence 4)  [357312B7]  (AR v2)
     Copy OK

Track  5

     Filename H:\EAC FILES\05 Bryan Adams - All For Love (Live From The Royal Albert Hall 2012).wav

     Pre-gap length  0:00:01.69

     Peak level 98.9 %
     Extraction speed 6.1 X
     Track quality 100.0 %
     Test CRC 06A2A01B
     Copy CRC 06A2A01B
     Accurately ripped (confidence 4)  [51A88AD2]  (AR v2)
     Copy OK

Track  6

     Filename H:\EAC FILES\06 Bryan Adams - Have You Ever Really Loved A Woman (Don Juan DeMarco Soundtrack Version).wav

     Pre-gap length  0:00:01.19

     Peak level 100.0 %
     Extraction speed 6.1 X
     Track quality 99.9 %
     Test CRC 6A28CB3F
     Copy CRC 6A28CB3F
     Accurately ripped (confidence 4)  [0A91DFDC]  (AR v2)
     Copy OK

Track  7

     Filename H:\EAC FILES\07 Bryan Adams - Run To You (Album Version).wav

     Pre-gap length  0:00:00.65

     Peak level 100.0 %
     Extraction speed 6.9 X
     Track quality 100.0 %
     Test CRC C070392D
     Copy CRC C070392D
     Accurately ripped (confidence 4)  [A72E033C]  (AR v2)
     Copy OK

Track  8

     Filename H:\EAC FILES\08 Bryan Adams - Please Forgive Me (Album Version).wav

     Pre-gap length  0:00:00.54

     Peak level 100.0 %
     Extraction speed 6.9 X
     Track quality 99.9 %
     Test CRC 607DD64D
     Copy CRC 607DD64D
     Accurately ripped (confidence 4)  [73FB68DA]  (AR v2)
     Copy OK

Track  9

     Filename H:\EAC FILES\09 Bryan Adams - House Arrest (Live From The Montreal Forum 2012).wav

     Pre-gap length  0:00:00.72

     Peak level 99.3 %
     Extraction speed 7.2 X
     Track quality 100.0 %
     Test CRC B324694E
     Copy CRC B324694E
     Accurately ripped (confidence 4)  [DF3A1BB6]  (AR v2)
     Copy OK

Track 10

     Filename H:\EAC FILES\10 Bryan Adams - Flying (Live At The Sydney Opera House 2011).wav

     Pre-gap length  0:00:01.43

     Peak level 99.5 %
     Extraction speed 7.4 X
     Track quality 100.0 %
     Test CRC 05D8E4A7
     Copy CRC 05D8E4A7
     Accurately ripped (confidence 4)  [E901AA34]  (AR v2)
     Copy OK

Track 11

     Filename H:\EAC FILES\11 Bryan Adams - The Only Thing That Looks Good On Me Is You (Album Version).wav

     Pre-gap length  0:00:00.74

     Peak level 99.3 %
     Extraction speed 7.5 X
     Track quality 100.0 %
     Test CRC 3F6CBBD1
     Copy CRC 3F6CBBD1
     Accurately ripped (confidence 4)  [D4EA74E9]  (AR v2)
     Copy OK

Track 12

     Filename H:\EAC FILES\12 Bryan Adams - Can't Stop This Thing We Started (Album Version).wav

     Pre-gap length  0:00:00.73

     Peak level 100.0 %
     Extraction speed 8.0 X
     Track quality 100.0 %
     Test CRC 607E521C
     Copy CRC 607E521C
     Accurately ripped (confidence 4)  [31CE3D76]  (AR v2)
     Copy OK

Track 13

     Filename H:\EAC FILES\13 Bryan Adams - When You Love Someone (MTV Unplugged Alternate Take).wav

     Pre-gap length  0:00:00.48

     Peak level 98.8 %
     Extraction speed 7.8 X
     Track quality 100.0 %
     Test CRC DEB4DB5E
     Copy CRC DEB4DB5E
     Accurately ripped (confidence 4)  [98C4DCD6]  (AR v2)
     Copy OK

Track 14

     Filename H:\EAC FILES\14 Bryan Adams - Cuts Like A Knife (Album Version).wav

     Pre-gap length  0:00:00.55

     Peak level 100.0 %
     Extraction speed 8.6 X
     Track quality 100.0 %
     Test CRC 16217F27
     Copy CRC 16217F27
     Accurately ripped (confidence 4)  [4831F1E5]  (AR v2)
     Copy OK

Track 15

     Filename H:\EAC FILES\15 Bryan Adams - Straight From The Heart (Live At The Sydney Opera House 2011).wav

     Peak level 99.0 %
     Extraction speed 8.2 X
     Track quality 100.0 %
     Test CRC 2E91E2E6
     Copy CRC 2E91E2E6
     Accurately ripped (confidence 4)  [C9D010CB]  (AR v2)
     Copy OK

Track 16

     Filename H:\EAC FILES\16 Bryan Adams - Back To You (MTV Unplugged Version).wav

     Pre-gap length  0:00:01.32

     Peak level 99.9 %
     Extraction speed 7.8 X
     Track quality 99.9 %
     Test CRC E9793745
     Copy CRC E9793745
     Accurately ripped (confidence 4)  [5D326A3A]  (AR v2)
     Copy OK

Track 17

     Filename H:\EAC FILES\17 Bryan Adams - 18 Til I Die (Album Version).wav

     Pre-gap length  0:00:01.14

     Peak level 98.0 %
     Extraction speed 7.4 X
     Track quality 99.9 %
     Test CRC 72966F61
     Copy CRC 72966F61
     Accurately ripped (confidence 4)  [17C49413]  (AR v2)
     Copy OK

All tracks accurately ripped

No errors occurred

End of status report

---- CUETools DB Plugin V2.1.3

[CTDB TOCID: GoHd08Ml.Q9Cpaf6t0zl96STHV0-] found, Submit result: GoHd08Ml.Q9Cpaf6t0zl96STHV0- has been confirmed
[26b53c4d] (2/2) Accurately ripped

==== Log checksum 87508DBC948306CCC38752A196E1155CF5D8D3407A6983EEFCF6E2FEE503FC30 ====
Код:
Код:
-----------------------

DON'T MODIFY THIS FILE

-----------------------

PERFORMER: auCDtect Task Manager, ver. 1.6.0 RC1 build 1.6.0.1
Copyright (c) 2008-2010 y-soft. All rights reserved
http:/y-soft.org

ANALYZER: auCDtect: CD records authenticity detector, version 0.8.2
Copyright (c) 2004 Oleg Berngardt. All rights reserved.
Copyright (c) 2004 Alexander Djourik. All rights reserved.

FILE: 17 Bryan Adams - 18 Til I Die (Album Version).flac
  Size: 27674502 Hash: BE5C819F1232AFCE9F2E8F11D2456474 Accuracy: -m0
  Conclusion: CDDA 100%
  Signature: 8513EDED1E594B1573D7E7A430CD1BDE2FFC783B
FILE: 16 Bryan Adams - Back To You (MTV Unplugged Version).flac
  Size: 37390957 Hash: 73E109A2659E8261DC4E068409104D23 Accuracy: -m0
  Conclusion: CDDA 99%
  Signature: 6D73678F15AC046B8151978AFB062D84494C78F7
FILE: 15 Bryan Adams - Straight From The Heart (Live At The Sydney Opera House 2011).flac
  Size: 20405963 Hash: D6267A5B7152079268AB11A0E27D3669 Accuracy: -m0
  Conclusion: CDDA 100%
  Signature: 5189B9CB34F211A602D99F7D37758E6078D00C24
FILE: 14 Bryan Adams - Cuts Like A Knife (Album Version).flac
  Size: 38922974 Hash: 9311D5A9D0B5B75FA6C697BFF8518AB4 Accuracy: -m0
  Conclusion: CDDA 100%
  Signature: 75EA0EA46EBE2EC82803395A6B975940B8F1D849
FILE: 13 Bryan Adams - When You Love Someone (MTV Unplugged Alternate Take).flac
  Size: 21625962 Hash: E8A4335B19A04C9FB5A10FA1D0E13507 Accuracy: -m0
  Conclusion: CDDA 100%
  Signature: 78B2D0B4C7376A2C5CC309C77B6351515AC57551
FILE: 12 Bryan Adams - Can't Stop This Thing We Started (Album Version).flac
  Size: 35820153 Hash: CAAE79D0A859C7AE7A5D51535B484DFD Accuracy: -m0
  Conclusion: CDDA 100%
  Signature: 2F2A5D242BBC0E935CE55CCCA00C8B513CEAC2EA
FILE: 11 Bryan Adams - The Only Thing That Looks Good On Me Is You (Album Version).flac
  Size: 28448941 Hash: 6011FCBE0C58C54FB68F11B4B2B66787 Accuracy: -m0
  Conclusion: CDDA 100%
  Signature: 78589DF525F49AA42C6EEBC0E3394A52E2BB1A3B
FILE: 10 Bryan Adams - Flying (Live At The Sydney Opera House 2011).flac
  Size: 20558113 Hash: 6ED036F400FF7887C5C5BF005CB4C1EC Accuracy: -m0
  Conclusion: CDDA 100%
  Signature: 9453E917988809CF91AAFCC5307568780F3D0B30
FILE: 09 Bryan Adams - House Arrest (Live From The Montreal Forum 2012).flac
  Size: 26292994 Hash: D244A574888ED7581D910239B220250F Accuracy: -m0
  Conclusion: CDDA 100%
  Signature: 0D10FA351DF943AC2FE832345426AA2A7544E375
FILE: 08 Bryan Adams - Please Forgive Me (Album Version).flac
  Size: 40833844 Hash: 0DB44ABCA35E0C248B0AEBBD605A0812 Accuracy: -m0
  Conclusion: CDDA 100%
  Signature: DD45E29A6752DE91FECC681AD79CECF9D79F90A8
FILE: 07 Bryan Adams - Run To You (Album Version).flac
  Size: 28404263 Hash: 11E3D966B4E5B49A23497A2E6CCB02D7 Accuracy: -m0
  Conclusion: CDDA 100%
  Signature: 8EED81A21B1F90646BC542219029F0CE496FC1D5
FILE: 06 Bryan Adams - Have You Ever Really Loved A Woman (Don Juan DeMarco Soundtrack Version).flac
  Size: 33236692 Hash: 5CCE2CE1F91BE67D32FDE371C60796D6 Accuracy: -m0
  Conclusion: CDDA 100%
  Signature: 799EC70055D73BDA3D5EE4F7701714CEFFCA2BD9
FILE: 05 Bryan Adams - All For Love (Live From The Royal Albert Hall 2012).flac
  Size: 22598731 Hash: D622EAF81D47FB4D49EEB901D69ABD19 Accuracy: -m0
  Conclusion: CDDA 100%
  Signature: 92FED101E34B583B6CB410077BD1E57AE905B1DF
FILE: 04 Bryan Adams - When You're Gone (Album Version).flac
  Size: 26086122 Hash: 14B1CB3682E5D09A292C3C919240E598 Accuracy: -m0
  Conclusion: CDDA 100%
  Signature: E89BA28F3B019B63CEB84DE6C6997E70FF2D6FC8
FILE: 03 Bryan Adams - Heaven (Album Version).flac
  Size: 29455744 Hash: 7C98829CC93CCF1AEFABB99B1FDF8B70 Accuracy: -m0
  Conclusion: CDDA 100%
  Signature: E11D43070979EF953A4916C504E533C50CE475D9
FILE: 02 Bryan Adams - (Everything I Do) I Do It For You (Album Version).flac
  Size: 46029134 Hash: 6D7F70AE1121BC2CF52D6843C5502A9E Accuracy: -m0
  Conclusion: CDDA 100%
  Signature: 951C3394A2ADB13A7C008B3C46D1EFA0F6E4E588
FILE: 01 Bryan Adams - Summer Of '69 (Album Version).flac
  Size: 27682157 Hash: 835535D2021937242840DA40D4F7EF17 Accuracy: -m0
  Conclusion: CDDA 100%
  Signature: A31EDBB6FE886E33C1481E2D8342223C0EA7B1F0
#777Пpодолжительность: 01:06:45
Тpеклист:
01. Cloud Number Nine (Chicane Mix) [4:12]
02. I'm Ready (MTV Unplugged Version) [4:30]
03. The Best Of Me (Album Version) [3:32]
04. I'll Always Be Right There [3:19]
05. You've Been A Friend To Me [2:50]
06. Tonight In Babylon (Live At The Sydney Opera House 2011) [3:39]
07. Heat Of The Night (Album Version) [5:08]
08. It's Only Love (Album Version) [3:17]
09. This Time (Album Version) [3:21]
10. Kids Wanna Rock (Album Version) [2:37]
11. Somebody (Album Version) [4:43]
12. Remember (Album Version) [3:42]
13. One Night Love Affair (Album Version) [4:33]
14. Hearts On Fire (Album Version) [3:31]
15. There Will Never Be Another Tonight (Album Version) [4:42]
16. Rock Steady (Unreleased Demo Version) [3:47]
17. All I Want Is You [5:22]

Код:
Код:
REM GENRE Rock
REM DATE 2013
REM DISCID F90FA411
REM COMMENT "ExactAudioCopy v1.0b3"
PERFORMER "Bryan Adams"
TITLE "Australian Tour Edition 2013 CD 2"
FILE "01 Bryan Adams - Cloud Number Nine (Chicane Mix).wav" WAVE
  TRACK 01 AUDIO
    TITLE "Cloud Number Nine (Chicane Mix)"
    PERFORMER "Bryan Adams"
    INDEX 01 00:00:00
  TRACK 02 AUDIO
    TITLE "I'm Ready (MTV Unplugged Version)"
    PERFORMER "Bryan Adams"
    INDEX 00 04:10:73
FILE "02 Bryan Adams - I'm Ready (MTV Unplugged Version).wav" WAVE
    INDEX 01 00:00:00
  TRACK 03 AUDIO
    TITLE "The Best Of Me (Album Version)"
    PERFORMER "Bryan Adams"
    INDEX 00 04:28:53
FILE "03 Bryan Adams - The Best Of Me (Album Version).wav" WAVE
    INDEX 01 00:00:00
  TRACK 04 AUDIO
    TITLE "I'll Always Be Right There"
    PERFORMER "Bryan Adams"
    INDEX 00 03:30:44
FILE "04 Bryan Adams - I'll Always Be Right There.wav" WAVE
    INDEX 01 00:00:00
  TRACK 05 AUDIO
    TITLE "You've Been A Friend To Me"
    PERFORMER "Bryan Adams"
    INDEX 00 03:16:57
FILE "05 Bryan Adams - You've Been A Friend To Me.wav" WAVE
    INDEX 01 00:00:00
  TRACK 06 AUDIO
    TITLE "Tonight In Babylon (Live At The Sydney Opera House 2011)"
    PERFORMER "Bryan Adams"
    INDEX 00 02:48:18
FILE "06 Bryan Adams - Tonight In Babylon (Live At The Sydney Opera House 2011).wav" WAVE
    INDEX 01 00:00:00
  TRACK 07 AUDIO
    TITLE "Heat Of The Night  (Album Version)"
    PERFORMER "Bryan Adams"
    INDEX 00 03:38:40
FILE "07 Bryan Adams - Heat Of The Night  (Album Version).wav" WAVE
    INDEX 01 00:00:00
  TRACK 08 AUDIO
    TITLE "It's Only Love (Album Version)"
    PERFORMER "Bryan Adams with Tina Turner"
    INDEX 00 05:07:04
FILE "08 Bryan Adams with Tina Turner - It's Only Love (Album Version).wav" WAVE
    INDEX 01 00:00:00
  TRACK 09 AUDIO
    TITLE "This Time (Album Version)"
    PERFORMER "Bryan Adams"
    INDEX 00 03:15:19
FILE "09 Bryan Adams - This Time (Album Version).wav" WAVE
    INDEX 01 00:00:00
  TRACK 10 AUDIO
    TITLE "Kids Wanna Rock (Album Version)"
    PERFORMER "Bryan Adams"
    INDEX 00 03:19:41
FILE "10 Bryan Adams - Kids Wanna Rock (Album Version).wav" WAVE
    INDEX 01 00:00:00
  TRACK 11 AUDIO
    TITLE "Somebody (Album Version)"
    PERFORMER "Bryan Adams"
    INDEX 00 02:35:58
FILE "11 Bryan Adams - Somebody (Album Version).wav" WAVE
    INDEX 01 00:00:00
  TRACK 12 AUDIO
    TITLE "Remember (Album Version)"
    PERFORMER "Bryan Adams"
    INDEX 00 04:41:73
FILE "12 Bryan Adams - Remember (Album Version).wav" WAVE
    INDEX 01 00:00:00
  TRACK 13 AUDIO
    TITLE "One Night Love Affair (Album Version)"
    PERFORMER "Bryan Adams"
    INDEX 00 03:41:46
FILE "13 Bryan Adams - One Night Love Affair (Album Version).wav" WAVE
    INDEX 01 00:00:00
  TRACK 14 AUDIO
    TITLE "Hearts On Fire (Album Version)"
    PERFORMER "Bryan Adams"
    INDEX 00 04:32:74
FILE "14 Bryan Adams - Hearts On Fire (Album Version).wav" WAVE
    INDEX 01 00:00:00
  TRACK 15 AUDIO
    TITLE "There Will Never Be Another Tonight (Album Version)"
    PERFORMER "Bryan Adams"
    INDEX 00 03:30:17
FILE "15 Bryan Adams - There Will Never Be Another Tonight (Album Version).wav" WAVE
    INDEX 01 00:00:00
  TRACK 16 AUDIO
    TITLE "Rock Steady (Unreleased Demo Version)"
    PERFORMER "Bryan Adams"
    INDEX 00 04:40:21
FILE "16 Bryan Adams - Rock Steady (Unreleased Demo Version).wav" WAVE
    INDEX 01 00:00:00
  TRACK 17 AUDIO
    TITLE "All I Want Is You"
    PERFORMER "Bryan Adams"
    INDEX 00 03:44:74
FILE "17 Bryan Adams - All I Want Is You.wav" WAVE
    INDEX 01 00:00:00
Код:
Код:
Exact Audio Copy V1.0 beta 3 from 29. August 2011

EAC extraction logfile from 12. December 2013, 23:57

Bryan Adams / Australian Tour Edition 2013 CD 2

Used drive  : PIONEER BD-RW   BDR-207D   Adapter: 0  ID: 3

Read mode               : Secure
Utilize accurate stream : Yes
Defeat audio cache      : Yes
Make use of C2 pointers : No

Read offset correction                      : 667
Overread into Lead-In and Lead-Out          : No
Fill up missing offset samples with silence : Yes
Delete leading and trailing silent blocks   : No
Null samples used in CRC calculations       : Yes
Used interface                              : Native Win32 interface for Win NT & 2000
Gap handling                                : Appended to previous track

Used output format              : User Defined Encoder
Selected bitrate                : 1024 kBit/s
Quality                         : High
Add ID3 tag                     : No
Command line compressor         : C:\Program Files (x86)\Exact Audio Copy\FLAC\FLAC.EXE
Additional command line options : -6 -V -T "ARTIST=%artist%" -T "TITLE=%title%" -T "ALBUM=%albumtitle%" -T "DATE=%year%" -T "TRACKNUMBER=%tracknr%" -T "GENRE=%genre%" -T "COMMENT=%comment%" -T "BAND=%albuminterpret%" -T "ALBUMARTIST=%albuminterpret%" -T "COMPOSER=%composer%" %haslyrics%--tag-from-file=LYRICS="%lyricsfile%"%haslyrics% -T "DISCNUMBER=%cdnumber%" -T "TOTALDISCS=%totalcds%" -T "TOTALTRACKS=%numtracks%" %hascover%--picture="%coverfile%"%hascover% %source% -o %dest%

TOC of the extracted CD

     Track |   Start  |  Length  | Start sector | End sector
    ---------------------------------------------------------
        1  |  0:00.00 |  4:12.05 |         0    |    18904
        2  |  4:12.05 |  4:30.29 |     18905    |    39183
        3  |  8:42.34 |  3:32.00 |     39184    |    55083
        4  | 12:14.34 |  3:18.65 |     55084    |    69998
        5  | 15:33.24 |  2:49.38 |     69999    |    82711
        6  | 18:22.62 |  3:39.33 |     82712    |    99169
        7  | 22:02.20 |  5:07.47 |     99170    |   122241
        8  | 27:09.67 |  3:16.43 |    122242    |   136984
        9  | 30:26.35 |  3:20.72 |    136985    |   152056
       10  | 33:47.32 |  2:36.55 |    152057    |   163811
       11  | 36:24.12 |  4:42.63 |    163812    |   185024
       12  | 41:07.00 |  3:42.24 |    185025    |   201698
       13  | 44:49.24 |  4:33.20 |    201699    |   222193
       14  | 49:22.44 |  3:31.08 |    222194    |   238026
       15  | 52:53.52 |  4:41.74 |    238027    |   259175
       16  | 57:35.51 |  3:46.56 |    259176    |   276181
       17  | 61:22.32 |  5:22.35 |    276182    |   300366

Track  1

     Filename H:\EAC FILES\01 Bryan Adams - Cloud Number Nine (Chicane Mix).wav

     Pre-gap length  0:00:02.00

     Peak level 100.0 %
     Extraction speed 4.9 X
     Track quality 100.0 %
     Test CRC 5035E12F
     Copy CRC 5035E12F
     Accurately ripped (confidence 4)  [41F45C81]  (AR v2)
     Copy OK

Track  2

     Filename H:\EAC FILES\02 Bryan Adams - I'm Ready (MTV Unplugged Version).wav

     Pre-gap length  0:00:01.07

     Peak level 98.9 %
     Extraction speed 5.4 X
     Track quality 100.0 %
     Test CRC 8795C2EE
     Copy CRC 8795C2EE
     Accurately ripped (confidence 4)  [ECCCE144]  (AR v2)
     Copy OK

Track  3

     Filename H:\EAC FILES\03 Bryan Adams - The Best Of Me (Album Version).wav

     Pre-gap length  0:00:01.51

     Peak level 100.0 %
     Extraction speed 5.6 X
     Track quality 100.0 %
     Test CRC D13A802C
     Copy CRC D13A802C
     Accurately ripped (confidence 4)  [1833D060]  (AR v2)
     Copy OK

Track  4

     Filename H:\EAC FILES\04 Bryan Adams - I'll Always Be Right There.wav

     Pre-gap length  0:00:01.31

     Peak level 98.9 %
     Extraction speed 5.0 X
     Track quality 99.9 %
     Test CRC BB3B4785
     Copy CRC BB3B4785
     Accurately ripped (confidence 4)  [FA2773E9]  (AR v2)
     Copy OK

Track  5

     Filename H:\EAC FILES\05 Bryan Adams - You've Been A Friend To Me.wav

     Pre-gap length  0:00:02.08

     Peak level 94.4 %
     Extraction speed 5.9 X
     Track quality 100.0 %
     Test CRC DFD6A141
     Copy CRC DFD6A141
     Accurately ripped (confidence 4)  [CE4ADF89]  (AR v2)
     Copy OK

Track  6

     Filename H:\EAC FILES\06 Bryan Adams - Tonight In Babylon (Live At The Sydney Opera House 2011).wav

     Pre-gap length  0:00:01.20

     Peak level 99.4 %
     Extraction speed 5.6 X
     Track quality 99.9 %
     Test CRC 2CEAE72D
     Copy CRC 2CEAE72D
     Accurately ripped (confidence 4)  [D3E2687E]  (AR v2)
     Copy OK

Track  7

     Filename H:\EAC FILES\07 Bryan Adams - Heat Of The Night  (Album Version).wav

     Pre-gap length  0:00:00.68

     Peak level 100.0 %
     Extraction speed 6.9 X
     Track quality 100.0 %
     Test CRC 4D5CF61F
     Copy CRC 4D5CF61F
     Accurately ripped (confidence 4)  [2C2D25DE]  (AR v2)
     Copy OK

Track  8

     Filename H:\EAC FILES\08 Bryan Adams with Tina Turner - It's Only Love (Album Version).wav

     Pre-gap length  0:00:00.43

     Peak level 100.0 %
     Extraction speed 6.7 X
     Track quality 100.0 %
     Test CRC B05FAB11
     Copy CRC B05FAB11
     Accurately ripped (confidence 4)  [E3AFFC76]  (AR v2)
     Copy OK

Track  9

     Filename H:\EAC FILES\09 Bryan Adams - This Time (Album Version).wav

     Pre-gap length  0:00:01.24

     Peak level 100.0 %
     Extraction speed 7.0 X
     Track quality 100.0 %
     Test CRC 046A6AFB
     Copy CRC 046A6AFB
     Accurately ripped (confidence 4)  [E4E059E0]  (AR v2)
     Copy OK

Track 10

     Filename H:\EAC FILES\10 Bryan Adams - Kids Wanna Rock (Album Version).wav

     Pre-gap length  0:00:01.31

     Peak level 95.5 %
     Extraction speed 6.8 X
     Track quality 100.0 %
     Test CRC 89C4F874
     Copy CRC 89C4F874
     Accurately ripped (confidence 4)  [709F575C]  (AR v2)
     Copy OK

Track 11

     Filename H:\EAC FILES\11 Bryan Adams - Somebody (Album Version).wav

     Pre-gap length  0:00:00.72

     Peak level 100.0 %
     Extraction speed 6.9 X
     Track quality 99.9 %
     Test CRC A3C26ED9
     Copy CRC A3C26ED9
     Accurately ripped (confidence 4)  [B9C344F5]  (AR v2)
     Copy OK

Track 12

     Filename H:\EAC FILES\12 Bryan Adams - Remember (Album Version).wav

     Pre-gap length  0:00:00.65

     Peak level 100.0 %
     Extraction speed 7.6 X
     Track quality 100.0 %
     Test CRC 88AB7485
     Copy CRC 88AB7485
     Accurately ripped (confidence 4)  [7B97BB12]  (AR v2)
     Copy OK

Track 13

     Filename H:\EAC FILES\13 Bryan Adams - One Night Love Affair (Album Version).wav

     Pre-gap length  0:00:00.53

     Peak level 100.0 %
     Extraction speed 8.1 X
     Track quality 100.0 %
     Test CRC 29782103
     Copy CRC 29782103
     Accurately ripped (confidence 4)  [BD7C7625]  (AR v2)
     Copy OK

Track 14

     Filename H:\EAC FILES\14 Bryan Adams - Hearts On Fire (Album Version).wav

     Pre-gap length  0:00:00.21

     Peak level 100.0 %
     Extraction speed 8.0 X
     Track quality 100.0 %
     Test CRC 10D0A208
     Copy CRC 10D0A208
     Accurately ripped (confidence 4)  [B8C03389]  (AR v2)
     Copy OK

Track 15

     Filename H:\EAC FILES\15 Bryan Adams - There Will Never Be Another Tonight (Album Version).wav

     Pre-gap length  0:00:00.66

     Peak level 100.0 %
     Extraction speed 8.5 X
     Track quality 100.0 %
     Test CRC 22301866
     Copy CRC 22301866
     Accurately ripped (confidence 4)  [76D2FA57]  (AR v2)
     Copy OK

Track 16

     Filename H:\EAC FILES\16 Bryan Adams - Rock Steady (Unreleased Demo Version).wav

     Pre-gap length  0:00:01.53

     Peak level 98.9 %
     Extraction speed 7.4 X
     Track quality 99.9 %
     Test CRC E2B8FD66
     Copy CRC E2B8FD66
     Accurately ripped (confidence 4)  [E79D1180]  (AR v2)
     Copy OK

Track 17

     Filename H:\EAC FILES\17 Bryan Adams - All I Want Is You.wav

     Pre-gap length  0:00:01.57

     Peak level 100.0 %
     Extraction speed 9.0 X
     Track quality 100.0 %
     Test CRC 975DF14E
     Copy CRC 975DF14E
     Accurately ripped (confidence 4)  [84DA4FC1]  (AR v2)
     Copy OK

All tracks accurately ripped

No errors occurred

End of status report

---- CUETools DB Plugin V2.1.3

[CTDB TOCID: NURhuJVs2EFkO6Xk6vg5Qa5wqmA-] found, Submit result: NURhuJVs2EFkO6Xk6vg5Qa5wqmA- has been confirmed
[66680108] (2/2) Accurately ripped

==== Log checksum 3F3233353373A3A052843AAFF8D9817C862FA3570C59304A8748EAA231DD7F31 ====
Код:
Код:
-----------------------

DON'T MODIFY THIS FILE

-----------------------

PERFORMER: auCDtect Task Manager, ver. 1.6.0 RC1 build 1.6.0.1
Copyright (c) 2008-2010 y-soft. All rights reserved
http:/y-soft.org

ANALYZER: auCDtect: CD records authenticity detector, version 0.8.2
Copyright (c) 2004 Oleg Berngardt. All rights reserved.
Copyright (c) 2004 Alexander Djourik. All rights reserved.

FILE: 17 Bryan Adams - All I Want Is You.flac
  Size: 42715420 Hash: 14A37EE5ACB2D6C99188BBC13ABD3FF7 Accuracy: -m0
  Conclusion: MPEG 95%
  Signature: 253DEE7805596804F4458E2DA51DA7C9ACDD7F08
FILE: 16 Bryan Adams - Rock Steady (Unreleased Demo Version).flac
  Size: 27463679 Hash: F5EBD6600DFD15DE1DB201CB9982B57D Accuracy: -m0
  Conclusion: MPEG 95%
  Signature: CB3E7C9CC8DAB61321836C51F8024E77E7412327
FILE: 15 Bryan Adams - There Will Never Be Another Tonight (Album Version).flac
  Size: 38087346 Hash: 52669617224E7579B02742347E7F01C6 Accuracy: -m0
  Conclusion: CDDA 99%
  Signature: 33F4AC8F19BCAAB7E6C8DFA935378594421DC0FB
FILE: 14 Bryan Adams - Hearts On Fire (Album Version).flac
  Size: 27636850 Hash: 998DC21DE5AE67A106ED228835A1B62E Accuracy: -m0
  Conclusion: CDDA 100%
  Signature: 9692CBB0AFED14DE573824A035ACE824094303F9
FILE: 13 Bryan Adams - One Night Love Affair (Album Version).flac
  Size: 34080956 Hash: 63EC208CF229E8075B3773620292134F Accuracy: -m0
  Conclusion: CDDA 99%
  Signature: E943927C2F90D58510224F6AA6246492AE4874C4
FILE: 12 Bryan Adams - Remember (Album Version).flac
  Size: 26689838 Hash: BF23EBBD1CE79D4A1D9227BF431520FF Accuracy: -m0
  Conclusion: CDDA 99%
  Signature: CF83BBEC66FEFC236EF9A59687413FFB99DB5082
FILE: 11 Bryan Adams - Somebody (Album Version).flac
  Size: 36630962 Hash: 35C0D64B13265704E8D2DC85F66205E4 Accuracy: -m0
  Conclusion: CDDA 100%
  Signature: F4855DCB1585608A71BFC81F542297C433205540
FILE: 10 Bryan Adams - Kids Wanna Rock (Album Version).flac
  Size: 19985835 Hash: F041F496F30567609DC2E7AF504605AB Accuracy: -m0
  Conclusion: CDDA 100%
  Signature: B34DFEAB4DEBA90F80786B399498E562A0E0C8D9
FILE: 09 Bryan Adams - This Time (Album Version).flac
  Size: 25353241 Hash: D0A77A15E5E0054C210442002C354119 Accuracy: -m0
  Conclusion: CDDA 100%
  Signature: 015673EEBA1A51BF05CB0BB2047541ED8FBBB64C
FILE: 08 Bryan Adams with Tina Turner - It's Only Love (Album Version).flac
  Size: 24546734 Hash: 87286CD83B0C0846CEF4422A36C8C865 Accuracy: -m0
  Conclusion: CDDA 100%
  Signature: 0CAA8FEFA7845D5733A23B49776F7969F790631D
FILE: 07 Bryan Adams - Heat Of The Night  (Album Version).flac
  Size: 40170633 Hash: 17041D6F40F357C652F75E03070D3E49 Accuracy: -m0
  Conclusion: CDDA 100%
  Signature: A7C2F0932AD4B1ED3FB7E46A214F7CCB4D5857D8
FILE: 06 Bryan Adams - Tonight In Babylon (Live At The Sydney Opera House 2011).flac
  Size: 23950913 Hash: 2581EFE779493978C006660B81C52486 Accuracy: -m0
  Conclusion: CDDA 100%
  Signature: 9367C2CCD23490441428668A29AF20E9EDE8EF77
FILE: 05 Bryan Adams - You've Been A Friend To Me.flac
  Size: 20417777 Hash: 51C8B20E402962990FDBBB056A30BF01 Accuracy: -m0
  Conclusion: CDDA 99%
  Signature: D7CB45C98BE1AC5FE73965B0913F9DC2ED5456D5
FILE: 04 Bryan Adams - I'll Always Be Right There.flac
  Size: 20382183 Hash: 882D2E8F832E4C9F17D87A28E798E3FA Accuracy: -m0
  Conclusion: CDDA 100%
  Signature: 3D305029A5B1D9483A6D1BC088D523E8923632F0
FILE: 03 Bryan Adams - The Best Of Me (Album Version).flac
  Size: 28752018 Hash: E29A7B3A06E3794E3E0D457553928222 Accuracy: -m0
  Conclusion: CDDA 100%
  Signature: 2FAFD0AA1C85256A494160C4A4EAA213FBF3365B
FILE: 02 Bryan Adams - I'm Ready (MTV Unplugged Version).flac
  Size: 30020059 Hash: 7BC41C8460519BF0566C253BAB4801F2 Accuracy: -m0
  Conclusion: CDDA 100%
  Signature: EF70C3168BDFF28CC15C7CCD4721828F9869E7F6
FILE: 01 Bryan Adams - Cloud Number Nine (Chicane Mix).flac
  Size: 33835158 Hash: 10C176D66098E629A95BE3157BE22496 Accuracy: -m0
  Conclusion: CDDA 100%
  Signature: FD0C1CB26DCB0CA95AB11E58BB542670164628BC
Правила, инструкции, FAQ!!!
Торрент  Добавлен [16 мар 2014, 00:21] Скачать торрент Магнет ссылка
Скачать торрент
[ Размер 23.64 КБ / Просмотров 43 ]

Статус  
 
Размер  967.03 МБ
Приватный: Нет (DHT включён)
.torrent скачан  0
 


     Отправить личное сообщение
   
Страница 1 из 1
Показать сообщения за:  Поле сортировки  
Начать новую тему Ответить на тему


Сейчас этот форум просматривают: нет зарегистрированных пользователей и гости: 0


Вы не можете начинать темы
Вы не можете отвечать на сообщения
Вы не можете редактировать свои сообщения
Вы не можете удалять свои сообщения
Вы не можете добавлять вложения

Перейти:  
cron
cron