Начать новую тему Ответить на тему
Статистика раздачи
Размер: 370.1 МБ | Добавлен: 16 мар 2014, 00:08 | Скачали: 0
Сидеров: 1  [0 байт/сек]    Личеров: 0  [0 байт/сек]
Пред. тема | След. тема 

Автор
Сообщение

СообщениеДобавлено: 16 мар 2014, 00:08 

Ответить с цитатой 

Bruce Springsteen - High Hopes (2014)

Год: 2014
Жанр: Rock
Лейбл: Columbia / Sony Music Entertainment
Номер по каталогу: 88843028062
Страна: Германия
Продолжительность: 00:56:30
Тип рипа: tracks+.cue
Кодек: FLAC
Битрейт: Lossless

Треклист:
01. High Hopes (feat. Tom Morello) - 4:57
02. Harry's Place (feat. Tom Morello) - 4:04
03. American Skin (feat. Tom Morello) (41 Shots) - 7:23
04. Just Like Fire Would (feat. Tom Morello) - 3:56
05. Down in the Hole - 04:59
06. Heaven's Wall (feat. Tom Morello) - 3:50
07. Frankie Fell in Love - 2:48
08. This is Your Sword - 2:52
09. Hunter of Invisible Game (feat. Tom Morello) - 4:42
10. The Ghost of Tom Joad (feat. Tom Morello) - 7:33
11. The Wall - 4:20
12. Dream Baby Dream (Version 2014) (feat. Tom Morello) - 5:02
Credits:
The E Street Band:
Bruce Springsteen – lead vocals, guitar, percussion, bass, percussion loop, organ, synthesizers, piano, banjo, mandolin, vibraphone, drums (11)
Steven Van Zandt – guitars, mandolin, background vocals
Nils Lofgren – guitars, background vocals
Garry Tallent – bass
Roy Bittan – piano, keyboards, accordion
Max Weinberg – drums (1-7, 9, 10, 12)
Clarence Clemons – saxophone (2, 3)
Danny Federici – organ (2, 11)
Patti Scialfa – background vocals

Additional musicians:
Tom Morello – guitar (1-4, 6, 9, 10, 12), lead vocals (10)
Jake Clemons – saxophone, background vocals
Charles Giordano – organ, accordion, keyboards
Ed Manion – saxophone
Soozie Tyrell – violin, guitars, background vocals
Ron Aniello – drum and percussion loops, bass, synthesizers, guitar, 12–string guitar, percussion, organ, farfisa organ, accordion, vibraphone
Sam Bardfeld – violin (6, 7, 8)
Everett Bradley – background vocals, percussion
Barry Danielian – trumpet
Curt Ramm – trumpet
Jeff Kievit - piccolo trumpet
Clark Gayton – trombone, tuba
Stan Harrison – saxophone
Cillian Vallely - low whistle, uillean pipes, whistle
Josh Freese – drums (8)
Curtis King – background vocals
Cindy Mizelle – background vocals
Michelle Moore – background vocals
Evan Springsteen – background vocals (5)
Jessica Springsteen – background vocals (5)
Samuel Springsteen – background vocals (5)
Strings: Atlanta Strings (2, 9), NY Chamber Consort Strings (4, 6, 12)

All songs written and composed by Bruce Springsteen, except where noted.
Written by Tim Scott McConnell (1), Chris Bailey (4), Martin Rev (12), Alan Vega (12)
Producers: Ron Aniello (1, 3, 4, 6-8, 10-12), Bruce Springsteen (1, 3, 4, 6-8, 10-12), Brendan O'Brien (2, 5, 6, 9)
Original Idea, Title: Joe Grushecky
Engineers: Bob Clearmountain, Nick DiDia, Rob Lebret, Kevin Mills, Ross Petersen, Geoff Sanoff, Dave Schiffman, Toby Scott
Mixing: Brendan O'Brien, Bob Clearmountain, Chris Lord-Alge
Recorded: December 2012-2013 in Thrill Hill; Thrill Hill West; Stone Hill Studio; Southern Tracks Recording Studio; Studios 301
Art Direction, Design: Michelle Holme
Photography: Danny Clinch

Об исполнителе:
Любимец "синих воротничков", американский певец, композитор и гитарист Брюс Фредерик Джозеф Спрингстин по прозвищу "Босс" родился в Нью-Джерси 23 сентября 1949 года. Стать музыкантом его подвигло выступление Элвиса Пресли, увиденное Брюсом на шоу Эда Салливана. Первую простенькую гитару Спрингстин приобрел в 13 лет, а в 16 прикупил себе более серьезный, 60-долларовый, инструмент. С 1965 года Брюс начал выступать с различными группами, стиль которых варьировался от гаражного рока до ритм-энд-блюза. К концу 60-х Спрингстин попробовал также выступать в одиночку, исполняя в основном акустическо-фолковый репертуар. В 1972-м с подачи Джона Хаммонда музыкант заключил контракт с "Columbia Records" и на следующий год начал студийную карьеру.

Для записи дебютного альбома Брюс подобрал себе сопровождающую команду, получившую название "E Street Band". Вышедший в январе 1973-го "Greetings From Asbury Park, N.J." вызвал одобрительную реакцию критиков, увидевших в Спрингстине второго Боба Дилана, однако, несмотря на этот факт, публика не спешила раскупать пластинку. Ситуация повторилась и со вторым альбомом, "The Wild, The Innocent And The E Street Shuffle". Пресса вновь печатала лестные отзывы, но продажи были откровенно низки.

Дело сдвинулось с мертвой точки, после того как на концерте Брюса побывал музыкальный критик Джон Ландау. Джон так прокомментировал свои впечатления - "Я видел будущее рок-н-ролла, и имя ему - Брюс Спрингстин". Именно под руководством Ландау, ставшим менеджером и продюсером музыканта, был записан прорывной альбом "Born to Run". Благодаря таким хитам как заглавный трек, "Thunder Road" и "Jungleland" артист получил национальное признание, а его фото замелькали на обложках изданий типа "Time" и "Newsweek". Увидев такое положение дел, первый менеджер Спрингстина затеял против своего бывшего подопечного судебную тяжбу, что затянуло выпуск следующей пластинки на целых три года. Когда вышел "Darkness On The Edge Of Town", музыкальный климат уже изменился, однако альбом нашел свою аудиторию и дал Спрингстину такие концертные фавориты как "Badlands" и "The Promised Land".

К слову сказать, популярность Босса во второй половине 70-х была довольно высока, что подтверждалось использованием его песен такими артистами как "Manfred Mann's Earth Band", Патти Смит и "Pointer Sisters". Сам же Брюс угодил в горячую десятку только в 1980 году с композицией "Hungry Heart". Эта песня прозвучала на альбоме "The River", полностью посвященном проблемам рабочего класса. Следующая работа Босса, "Nebraska", содержавшая сольные акустические номера, получилась абсолютно некоммерческой, но ее взяли себе в пример следующие поколения инди-рокеров.

Возвращение Спрингстина в мэйнстрим состоялось в 1984 году, когда вышел его знаменитый "Born In The U.S.A.". Диск сопровождался семью(!) хит-синглами, а его тираж только в США составил свыше 15 миллионов экземпляров. В поддержку альбома Брюс гастролировал около двух лет, а по окончании разъездов выпустил концертный бокс-сет, дебютировавший в чартах на первой позиции. В конце 80-х Брюс женился на бэк-вокалистке "E Street Band" Патти, а саму команду распустил. В новом, "абсолютно сольном", качестве он дебютировал в 1992 году, выпустив одновременно два интроспективных альбома, "Human Touch" и "Lucky Town". В 1995-м Спрингстин ненадолго воссоединился со своей группой, чтобы записать несколько треков для "Greatest Hits", но настоящий реюнион произошел только четыре года спустя, вскоре после его введения в "Зал Славы Рок-н-Ролла".

Брюс и компания провели полноценное мировое турне, а затем порадовали своих поклонников коммерчески успешным альбомом "The Rising". Диск стал своеобразной реакцией на события 11 сентября и оказалась весьма успешным. Потом состоялись еще одни глобальные гастроли, но следующую работу Босс вновь записывал в одиночку. "Devils & Dust", выпущенный в 2005 году был сделан в духе "Nebraska" и "The Ghost Of Tom Joad". Следующим стал альбом в стиле фолк We Shall Overcome: The Seeger Sessions (2006), за которым последовал диск Magic (2007). В то же время Спрингстин принял активное участие в избирательной кампании Барака Обамы. Его шестнадцатый студийный альбом Working On A Dream вышел в конце января 2009 года, а в 2010 году дискография Спрингстина пополнилась прекрасным сборником The Collection 1973-1984. На этом альбоме представлены одни из лучших песен Брюса, проверенные временем и вполне заслуженно получившие титул классики рок-музыки. Несомненно, этот сборник стал отличным подарком для всех поклонников легендарного музыканта.
Код:
Код:
X Lossless Decoder version 20131102 (145.0)

XLD extraction logfile from 2014-01-10 14:15:22 +0100

Bruce Springsteen / High Hopes

Used drive : HL-DT-ST DVDRAM GE20LU10 (revision FE06)
Media type : Pressed CD

Ripper mode             : XLD Secure Ripper
Disable audio cache     : OK for the drive with a cache less than 1375KiB
Make use of C2 pointers : NO
Read offset correction  : 667
Max retry count         : 100
Gap status              : Analyzed, Appended

TOC of the extracted CD
     Track |   Start  |  Length  | Start sector | End sector
    ---------------------------------------------------------
        1  | 00:00:00 | 04:57:74 |         0    |    22348
        2  | 04:57:74 | 04:04:21 |     22349    |    40669
        3  | 09:02:20 | 07:23:41 |     40670    |    73935
        4  | 16:25:61 | 03:56:15 |     73936    |    91650
        5  | 20:22:01 | 04:59:32 |     91651    |   114107
        6  | 25:21:33 | 03:50:06 |    114108    |   131363
        7  | 29:11:39 | 02:48:26 |    131364    |   143989
        8  | 31:59:65 | 02:52:67 |    143990    |   156956
        9  | 34:52:57 | 04:42:33 |    156957    |   178139
       10  | 39:35:15 | 07:33:64 |    178140    |   212178
       11  | 47:09:04 | 04:20:31 |    212179    |   231709
       12  | 51:29:35 | 05:02:19 |    231710    |   254378

AccurateRip Summary (DiscID: 001932e9-00e9575d-a90d3f0c)
    Track 01 : OK (v2, confidence 1/1)
    Track 02 : OK (v2, confidence 1/1)
    Track 03 : OK (v2, confidence 1/1)
    Track 04 : OK (v2, confidence 1/1)
    Track 05 : OK (v2, confidence 1/1)
    Track 06 : OK (v2, confidence 1/1)
    Track 07 : OK (v2, confidence 1/1)
    Track 08 : OK (v2, confidence 1/1)
    Track 09 : OK (v2, confidence 1/1)
    Track 10 : OK (v2, confidence 1/1)
    Track 11 : OK (v2, confidence 1/1)
    Track 12 : OK (v2, confidence 1/1)
        ->All tracks accurately ripped.

All Tracks
    Album gain               : -8.42 dB
    Peak                     : 1.000000
    Statistics
        Read error                           : 0
        Jitter error (maybe fixed)           : 0
        Retry sector count                   : 0
        Damaged sector count                 : 0

Track 01
    Filename : /Users/cw/Desktop/Bruce Springsteen -2014- High Hopes (FLAC)/01 - Bruce Springsteen - 2014 - High Hopes.flac
    Pre-gap length : 00:02:00

    Track gain               : -8.30 dB
    Peak                     : 1.000000
    CRC32 hash (test run)    : 15B7970F
    CRC32 hash               : 15B7970F
    CRC32 hash (skip zero)   : CCB4BC72
    AccurateRip v1 signature : 7917A141
    AccurateRip v2 signature : 611983CD
        ->Accurately ripped (v2, confidence 1/1)
    Statistics
        Read error                           : 0
        Jitter error (maybe fixed)           : 0
        Retry sector count                   : 0
        Damaged sector count                 : 0

Track 02
    Filename : /Users/cw/Desktop/Bruce Springsteen -2014- High Hopes (FLAC)/02 - Bruce Springsteen - 2014 - Harry's Place.flac
    Pre-gap length : 00:01:31

    Track gain               : -7.72 dB
    Peak                     : 1.000000
    CRC32 hash (test run)    : 26B128FC
    CRC32 hash               : 26B128FC
    CRC32 hash (skip zero)   : 824CFC20
    AccurateRip v1 signature : 76A1EAD7
    AccurateRip v2 signature : 745471CB
        ->Accurately ripped (v2, confidence 1/1)
    Statistics
        Read error                           : 0
        Jitter error (maybe fixed)           : 0
        Retry sector count                   : 0
        Damaged sector count                 : 0

Track 03
    Filename : /Users/cw/Desktop/Bruce Springsteen -2014- High Hopes (FLAC)/03 - Bruce Springsteen - 2014 - American Skin (41 Shots).flac
    Pre-gap length : 00:01:04

    Track gain               : -8.31 dB
    Peak                     : 1.000000
    CRC32 hash (test run)    : 74BA914D
    CRC32 hash               : 74BA914D
    CRC32 hash (skip zero)   : EB6EA11C
    AccurateRip v1 signature : 3E304660
    AccurateRip v2 signature : 04B51BE3
        ->Accurately ripped (v2, confidence 1/1)
    Statistics
        Read error                           : 0
        Jitter error (maybe fixed)           : 0
        Retry sector count                   : 0
        Damaged sector count                 : 0

Track 04
    Filename : /Users/cw/Desktop/Bruce Springsteen -2014- High Hopes (FLAC)/04 - Bruce Springsteen - 2014 - Just Like Fire Would.flac
    Pre-gap length : 00:01:24

    Track gain               : -8.70 dB
    Peak                     : 1.000000
    CRC32 hash (test run)    : 6AE8AB4A
    CRC32 hash               : 6AE8AB4A
    CRC32 hash (skip zero)   : 4F3F3FF5
    AccurateRip v1 signature : 6B52E689
    AccurateRip v2 signature : 24C60B42
        ->Accurately ripped (v2, confidence 1/1)
    Statistics
        Read error                           : 0
        Jitter error (maybe fixed)           : 0
        Retry sector count                   : 0
        Damaged sector count                 : 0

Track 05
    Filename : /Users/cw/Desktop/Bruce Springsteen -2014- High Hopes (FLAC)/05 - Bruce Springsteen - 2014 - Down in the Hole.flac
    Pre-gap length : 00:03:40

    Track gain               : -5.95 dB
    Peak                     : 0.989014
    CRC32 hash (test run)    : 4B5154CA
    CRC32 hash               : 4B5154CA
    CRC32 hash (skip zero)   : 27BFF9C2
    AccurateRip v1 signature : 075A66B6
    AccurateRip v2 signature : 5FC3E4F1
        ->Accurately ripped (v2, confidence 1/1)
    Statistics
        Read error                           : 0
        Jitter error (maybe fixed)           : 0
        Retry sector count                   : 0
        Damaged sector count                 : 0

Track 06
    Filename : /Users/cw/Desktop/Bruce Springsteen -2014- High Hopes (FLAC)/06 - Bruce Springsteen - 2014 - Heaven's Wall.flac
    Pre-gap length : 00:02:55

    Track gain               : -8.69 dB
    Peak                     : 1.000000
    CRC32 hash (test run)    : CAA2DBFD
    CRC32 hash               : CAA2DBFD
    CRC32 hash (skip zero)   : 0712C4EB
    AccurateRip v1 signature : DF7BFA3C
    AccurateRip v2 signature : 158516BB
        ->Accurately ripped (v2, confidence 1/1)
    Statistics
        Read error                           : 0
        Jitter error (maybe fixed)           : 0
        Retry sector count                   : 0
        Damaged sector count                 : 0

Track 07
    Filename : /Users/cw/Desktop/Bruce Springsteen -2014- High Hopes (FLAC)/07 - Bruce Springsteen - 2014 - Frankie Fell in Love.flac
    Pre-gap length : 00:02:13

    Track gain               : -8.63 dB
    Peak                     : 1.000000
    CRC32 hash (test run)    : D780A364
    CRC32 hash               : D780A364
    CRC32 hash (skip zero)   : 52D4848E
    AccurateRip v1 signature : BE7C5CC2
    AccurateRip v2 signature : 4E0B3C31
        ->Accurately ripped (v2, confidence 1/1)
    Statistics
        Read error                           : 0
        Jitter error (maybe fixed)           : 0
        Retry sector count                   : 0
        Damaged sector count                 : 0

Track 08
    Filename : /Users/cw/Desktop/Bruce Springsteen -2014- High Hopes (FLAC)/08 - Bruce Springsteen - 2014 - This is Your Sword.flac
    Pre-gap length : 00:02:70

    Track gain               : -8.96 dB
    Peak                     : 1.000000
    CRC32 hash (test run)    : 8B7FEB12
    CRC32 hash               : 8B7FEB12
    CRC32 hash (skip zero)   : 67F3E925
    AccurateRip v1 signature : 5E6D9235
    AccurateRip v2 signature : D3E73800
        ->Accurately ripped (v2, confidence 1/1)
    Statistics
        Read error                           : 0
        Jitter error (maybe fixed)           : 0
        Retry sector count                   : 0
        Damaged sector count                 : 0

Track 09
    Filename : /Users/cw/Desktop/Bruce Springsteen -2014- High Hopes (FLAC)/09 - Bruce Springsteen - 2014 - Hunter of Invisible Game.flac
    Pre-gap length : 00:03:24

    Track gain               : -5.95 dB
    Peak                     : 1.000000
    CRC32 hash (test run)    : EEB2E41C
    CRC32 hash               : EEB2E41C
    CRC32 hash (skip zero)   : 214AD1C6
    AccurateRip v1 signature : F097E119
    AccurateRip v2 signature : C44DDE29
        ->Accurately ripped (v2, confidence 1/1)
    Statistics
        Read error                           : 0
        Jitter error (maybe fixed)           : 0
        Retry sector count                   : 0
        Damaged sector count                 : 0

Track 10
    Filename : /Users/cw/Desktop/Bruce Springsteen -2014- High Hopes (FLAC)/10 - Bruce Springsteen - 2014 - The Ghost of Tom Joad.flac
    Pre-gap length : 00:02:43

    Track gain               : -9.45 dB
    Peak                     : 1.000000
    CRC32 hash (test run)    : 7EA4F303
    CRC32 hash               : 7EA4F303
    CRC32 hash (skip zero)   : 18CBAD7C
    AccurateRip v1 signature : 0026C72F
    AccurateRip v2 signature : 40B52537
        ->Accurately ripped (v2, confidence 1/1)
    Statistics
        Read error                           : 0
        Jitter error (maybe fixed)           : 0
        Retry sector count                   : 0
        Damaged sector count                 : 0

Track 11
    Filename : /Users/cw/Desktop/Bruce Springsteen -2014- High Hopes (FLAC)/11 - Bruce Springsteen - 2014 - The Wall.flac
    Pre-gap length : 00:04:56

    Track gain               : -5.36 dB
    Peak                     : 0.991089
    CRC32 hash (test run)    : C5E4CA8B
    CRC32 hash               : C5E4CA8B
    CRC32 hash (skip zero)   : 24C91D49
    AccurateRip v1 signature : F0B8C36A
    AccurateRip v2 signature : 708637B7
        ->Accurately ripped (v2, confidence 1/1)
    Statistics
        Read error                           : 0
        Jitter error (maybe fixed)           : 0
        Retry sector count                   : 0
        Damaged sector count                 : 0

Track 12
    Filename : /Users/cw/Desktop/Bruce Springsteen -2014- High Hopes (FLAC)/12 - Bruce Springsteen - 2014 - Dream Baby Dream.flac
    Pre-gap length : 00:05:67

    Track gain               : -6.47 dB
    Peak                     : 1.000000
    CRC32 hash (test run)    : 0CC37AB8
    CRC32 hash               : 0CC37AB8
    CRC32 hash (skip zero)   : 6F5CBF17
    AccurateRip v1 signature : DDAEC3CB
    AccurateRip v2 signature : 505A2644
        ->Accurately ripped (v2, confidence 1/1)
    Statistics
        Read error                           : 0
        Jitter error (maybe fixed)           : 0
        Retry sector count                   : 0
        Damaged sector count                 : 0

No errors occurred

End of status report

-----BEGIN XLD SIGNATURE-----
7wHKBRgb2H0kC0wvZUyvxM8QUOstRKLoWzSRNbPvRpGM1cm8_7ZnhaBtJP9kFT7Vot16_PTcdsKPre8hmNs1zqEkEZTvM8zNwDYjWX8
-----END XLD SIGNATURE-----
Код:
Код:
PERFORMER: auCDtect Task Manager, ver. 1.6.0 RC1 build 1.6.0.1
Copyright (c) 2008-2010 y-soft. All rights reserved
http:/y-soft.org

ANALYZER: auCDtect: CD records authenticity detector, version 0.8.2
Copyright (c) 2004 Oleg Berngardt. All rights reserved.
Copyright (c) 2004 Alexander Djourik. All rights reserved.

FILE: 12. Dream Baby Dream.flac
  Size: 30635100 Hash: 9F6871E54BFD51BA999B63F3D8046991 Accuracy: -m0
  Conclusion: CDDA 100%
  Signature: EF1C03B24758D1A49D4131708E6C376980FE1E50
FILE: 11. The Wall.flac
  Size: 22609348 Hash: 64E75413CADAF3126F9CDAD55510F04E Accuracy: -m0
  Conclusion: CDDA 100%
  Signature: 23A21666947774C48A912DD080C5A661E77943D9
FILE: 10. The Ghost of Tom Joad.flac
  Size: 53150744 Hash: FFD40C30B9B56E552086BA14FEDAFFDB Accuracy: -m0
  Conclusion: CDDA 100%
  Signature: CEA749B294DCB6596CF943A769CB82382FCE2A09
FILE: 09. Hunter of Invisible Game.flac
  Size: 31818355 Hash: 042D783B045E23C6332BEC8BA692E913 Accuracy: -m0
  Conclusion: CDDA 99%
  Signature: F7660504DD739587B7D5A98F6D2F4F16EF5DEE93
FILE: 08. This is Your Sword.flac
  Size: 22638952 Hash: 66A5626F9F1A97C6155B598C9A3FBFB5 Accuracy: -m0
  Conclusion: CDDA 100%
  Signature: AF33A93B8EF24136354CA7C8F9EBC75CB9AADF1B
FILE: 07. Frankie Fell in Love.flac
  Size: 21576684 Hash: C769CC8F25A48698EEEA891B2E71A036 Accuracy: -m0
  Conclusion: CDDA 100%
  Signature: 5EF31FD9532255E05E533462BD7B5A6A6C567DD8
FILE: 06. Heaven's Wall.flac
  Size: 29502300 Hash: 77361FEB17B2DEBBCD1EC7E29382DA21 Accuracy: -m0
  Conclusion: CDDA 100%
  Signature: 357971A1EDBB4834C2C25B5CAE0AFED27753BCB1
FILE: 05. Down in the Hole.flac
  Size: 31373881 Hash: 751987AECCF9FE6DFE60B36DACEC6355 Accuracy: -m0
  Conclusion: CDDA 100%
  Signature: 3B41F824F47303982ED94AD54CF596D20BEDF6FC
FILE: 04. Just Like Fire Would.flac
  Size: 30397006 Hash: 2CA29A7A03EF8BCE665953345D6283A5 Accuracy: -m0
  Conclusion: CDDA 100%
  Signature: E790BBA2923357C62138186C2F6AB237C4EB9895
FILE: 03. American Skin (41 Shots).flac
  Size: 47150678 Hash: 251690B444E0E243157262174658EF5F Accuracy: -m0
  Conclusion: CDDA 100%
  Signature: A0991391BA567B63571E99D4747CA71D4C4338B9
FILE: 02. Harry's Place.flac
  Size: 28079352 Hash: B9BA1AFF4FB1F8500F0DD2411206909A Accuracy: -m0
  Conclusion: CDDA 100%
  Signature: 00A38C9D2F3A5491B2DE1A3EA357825CDD17E8FB
FILE: 01. High Hopes.flac
  Size: 38131969 Hash: C71DC4B9932093F7C65FA2E3EE10C21F Accuracy: -m0
  Conclusion: CDDA 100%
  Signature: 31C3EBF33950603CD0C55339DE140E4A8E813A8D
Правила, инструкции, FAQ!!!
Торрент  Добавлен [16 мар 2014, 00:08] Скачать торрент Магнет ссылка
Скачать торрент
[ Размер 16.22 КБ / Просмотров 59 ]

Статус  
 
Размер  370.1 МБ
Приватный: Нет (DHT включён)
.torrent скачан  0
 


     Отправить личное сообщение
   
Страница 1 из 1
Показать сообщения за:  Поле сортировки  
Начать новую тему Ответить на тему


Сейчас этот форум просматривают: нет зарегистрированных пользователей и гости: 0


Вы не можете начинать темы
Вы не можете отвечать на сообщения
Вы не можете редактировать свои сообщения
Вы не можете удалять свои сообщения
Вы не можете добавлять вложения

Перейти:  
cron