Начать новую тему Ответить на тему
Статистика раздачи
Размер: 333.08 МБ | Добавлен: 16 мар 2014, 00:47 | Скачали: 1
Сидеров: 1  [0 байт/сек]    Личеров: 0  [0 байт/сек]
Пред. тема | След. тема 

Автор
Сообщение

СообщениеДобавлено: 16 мар 2014, 00:47 

Ответить с цитатой 

Breathe Carolina - Hell is What You Make It (2011)


Год: 2011
Страна: USA
Жанр: Emocore / Electronic / Post-Hardcore
Продолжительность: 00:47:50
Издатель: Fearless Records
Каталог №: B0051UAIQU
Кодек: FLAC
Битрейт: Lossless
Источник: Собственный CD
Наличие сканов: Да
Треклист:
01 - Rebirth: An Introduction (0:59)
02 - Wooly (3:53)
03 - Blackout (3:30)
04 - Edge Of Heaven (3:39)
05 - Last Night (Vegas) (3:35)
06 - Sweat It Out (3:51)
07 - Gone So Long (4:08)
08 - They Say You Won't Come Back (4:16)
09 - Get Off Easy (3:46)
10 - Waiting (4:25)
11 - Take It Back (3:29)
12 - Chemicals (3:32)
13 - Lauren's Song (4:10)
#777Breathe Carolina – группа из города Денвер, Колорадо, США, сформированная Кайлом Эвэном и Дэвидом Шмиттом в 2007 году. Парни прославились такими убойными хитами, как «Hello Fascination» и «I.D.G.A.F.».

Дэвид Шмитт родился 26 марта 1988 года, в Колорадо. Кайл Эвэн родился 21 сентября 1985 года, в Спринге Гленвуд. Кайл играл в группе Rivendale, Дэвид играл в группе As the Flood Water Rose (позже The Autobiography). Обе группы часто выступали вместе. Со временем каждый из участников групп пошли по своему пути, ну а Кайл и Дэвид создали Breathe Carolina. Название Breathe Carolina появилось из мечты Шмитта в 9-м классе о женщине по имени Каролина.

Начав в 2007, на следующий год, их песни на Myspace, прослушали 10 000 раз и около 30 миллионов раз в 2009 году. Их первый мини-альбом Gossip вышел 26 ноября 2007 эксклюзивно для iTunes.

Немного погодя, они подписались на Rise Records и выпустили свой первый альбом. В альбом были включены пять новых песен, не вошедшие в Gossip, такие как «The Introduction», «No Vacancy», «Show Me Yours», «Classified», «That’s Classy» и «You Wish». Только трек «Don’t Forget: Lock The Door» был с Gossip EP и не входил на LP. Альбом вышел 16 сентября 2008 вслед за туром для раскрутки этого альбома. Breathe Carolina проводила свой тур с коллективами Every Avenue, Brokencyde и The Morning Of.

18 августа 2009 группа выпустила свой второй альбом под названием «Hello Fascination», для записи которого к группе присоеденились Джошуа (клавиши, гитара, бэк-вокал), Луис (музыкальное программирование) и Эрик (ударные). На песни «I.D.G.A.F.» и «Hello Fascination» были сняты клипы.

12 июня 2011 выпускают третий альбом под названием «Hell Is What You Make It».

В 2013 году в связи с рождением сына Кайл Экван покинул группу, зато в основной состав Breathe Carolina вошли сессионные музыканты.
Состав:
Дэвид Шмитт (David Schmitt) – чистый вокал, синтезатор, клавишные, программирование, гитара, ударные
Эрик Армента (Eric Armenta) – ударные
Джошуа Эндрю (Joshua Andrew) – гитара, синтезатор, клавишные, программирование, бэк-вокал
Луи Боне (Luis Bonet) – программирование, клавишные
Дискография:
Студийные альбомы:
2008 – It’s Classy, Not Classic
2009 – Hello Fascination
2011 – Hell Is What You Make It
2012 – Hell Is What You Make It: Reloaded
EPs:
2007 – Gossip
2011 – Blackout: The Remixes
Синглы:
2008 – Diamonds
2010 – Hello Fascination
2010 – I.D.G.A.F.
2010 – The Dressing Room
2011 – Blackout
2012 – Hit And Run
2013 – Savages
Код:
Код:
Exact Audio Copy V1.0 beta 3 from 29. August 2011

EAC extraction logfile from 13. December 2013, 4:29

Breathe Carolina / Hell Is What You Make It

Used drive  : HL-DT-STBD-RE BT11F   Adapter: 2  ID: 0

Read mode               : Secure
Utilize accurate stream : Yes
Defeat audio cache      : Yes
Make use of C2 pointers : No

Read offset correction                      : 667
Overread into Lead-In and Lead-Out          : No
Fill up missing offset samples with silence : Yes
Delete leading and trailing silent blocks   : No
Null samples used in CRC calculations       : Yes
Used interface                              : Native Win32 interface for Win NT & 2000
Gap handling                                : Appended to previous track

Used output format              : User Defined Encoder
Selected bitrate                : 128 kBit/s
Quality                         : High
Add ID3 tag                     : No
Command line compressor         : E:\Program Files\Exact Audio Copy\Flac\flac.exe
Additional command line options : -V -8 -T "Genre=%genre%" -T "Artist=%artist%" -T "Title=%title%" -T "Album=%albumtitle%" -T "Date=%year%" -T "Tracknumber=%tracknr%" -T "Comment=%comment%" %source%

TOC of the extracted CD

     Track |   Start  |  Length  | Start sector | End sector
    ---------------------------------------------------------
        1  |  0:00.00 |  0:59.16 |         0    |     4440
        2  |  0:59.16 |  3:53.11 |      4441    |    21926
        3  |  4:52.27 |  3:30.15 |     21927    |    37691
        4  |  8:22.42 |  3:39.25 |     37692    |    54141
        5  | 12:01.67 |  3:34.48 |     54142    |    70239
        6  | 15:36.40 |  3:51.12 |     70240    |    87576
        7  | 19:27.52 |  4:07.40 |     87577    |   106141
        8  | 23:35.17 |  4:15.38 |    106142    |   125304
        9  | 27:50.55 |  3:45.63 |    125305    |   142242
       10  | 31:36.43 |  4:24.32 |    142243    |   162074
       11  | 36:01.00 |  3:29.18 |    162075    |   177767
       12  | 39:30.18 |  3:31.54 |    177768    |   193646
       13  | 43:01.72 |  4:10.22 |    193647    |   212418

Track  1

     Filename E:\Music\1\01 Rebirth- An Introduction.wav

     Pre-gap length  0:00:02.00

     Peak level 99.9 %
     Extraction speed 1.6 X
     Track quality 100.0 %
     Test CRC EDD7CD09
     Copy CRC EDD7CD09
     Accurately ripped (confidence 12)  [EAE76427]  (AR v2)
     Copy OK

Track  2

     Filename E:\Music\1\02 Wooly.wav

     Peak level 99.9 %
     Extraction speed 2.5 X
     Track quality 100.0 %
     Test CRC 2B5932E0
     Copy CRC 2B5932E0
     Accurately ripped (confidence 11)  [3DF7C3D9]  (AR v2)
     Copy OK

Track  3

     Filename E:\Music\1\03 Blackout.wav

     Peak level 99.9 %
     Extraction speed 2.7 X
     Track quality 100.0 %
     Test CRC 14C79C19
     Copy CRC 14C79C19
     Accurately ripped (confidence 13)  [D2907CB2]  (AR v2)
     Copy OK

Track  4

     Filename E:\Music\1\04 Edge of Heaven.wav

     Pre-gap length  0:00:01.74

     Peak level 99.9 %
     Extraction speed 2.9 X
     Track quality 100.0 %
     Test CRC B495A4FA
     Copy CRC B495A4FA
     Accurately ripped (confidence 12)  [71D63042]  (AR v2)
     Copy OK

Track  5

     Filename E:\Music\1\05 Last Night (Vegas).wav

     Peak level 99.9 %
     Extraction speed 3.1 X
     Track quality 100.0 %
     Test CRC B042DE1A
     Copy CRC B042DE1A
     Accurately ripped (confidence 10)  [B53B25D8]  (AR v2)
     Copy OK

Track  6

     Filename E:\Music\1\06 Sweat It Out.wav

     Pre-gap length  0:00:01.06

     Peak level 99.9 %
     Extraction speed 3.3 X
     Track quality 100.0 %
     Test CRC DED3184C
     Copy CRC DED3184C
     Accurately ripped (confidence 11)  [596CE547]  (AR v2)
     Copy OK

Track  7

     Filename E:\Music\1\07 Gone So Long.wav

     Pre-gap length  0:00:03.04

     Peak level 99.9 %
     Extraction speed 3.5 X
     Track quality 100.0 %
     Test CRC 2CF35F28
     Copy CRC 2CF35F28
     Accurately ripped (confidence 11)  [B047074D]  (AR v2)
     Copy OK

Track  8

     Filename E:\Music\1\08 They Say You Won't Come Back.wav

     Pre-gap length  0:00:01.29

     Peak level 99.9 %
     Extraction speed 3.7 X
     Track quality 100.0 %
     Test CRC 68B94AE3
     Copy CRC 68B94AE3
     Accurately ripped (confidence 11)  [9545EC88]  (AR v2)
     Copy OK

Track  9

     Filename E:\Music\1\09 Get Off Easy.wav

     Pre-gap length  0:00:02.00

     Peak level 99.9 %
     Extraction speed 3.9 X
     Track quality 100.0 %
     Test CRC 54D6BA2A
     Copy CRC 54D6BA2A
     Accurately ripped (confidence 10)  [D3B1AC4E]  (AR v2)
     Copy OK

Track 10

     Filename E:\Music\1\10 Waiting.wav

     Peak level 99.9 %
     Extraction speed 4.1 X
     Track quality 100.0 %
     Test CRC B2D77C47
     Copy CRC B2D77C47
     Accurately ripped (confidence 10)  [75A0966F]  (AR v2)
     Copy OK

Track 11

     Filename E:\Music\1\11 Take It Back.wav

     Pre-gap length  0:00:03.66

     Peak level 99.9 %
     Extraction speed 4.1 X
     Track quality 100.0 %
     Test CRC 1F987608
     Copy CRC 1F987608
     Accurately ripped (confidence 11)  [D09B233A]  (AR v2)
     Copy OK

Track 12

     Filename E:\Music\1\12 Chemicals.wav

     Pre-gap length  0:00:01.03

     Peak level 91.2 %
     Extraction speed 4.2 X
     Track quality 100.0 %
     Test CRC 4EAB4B73
     Copy CRC 4EAB4B73
     Accurately ripped (confidence 11)  [328FB751]  (AR v2)
     Copy OK

Track 13

     Filename E:\Music\1\13 Lauren's Song.wav

     Pre-gap length  0:00:01.49

     Peak level 99.4 %
     Extraction speed 4.5 X
     Track quality 100.0 %
     Test CRC 328D73B6
     Copy CRC 328D73B6
     Accurately ripped (confidence 11)  [2EAF6AAF]  (AR v2)
     Copy OK

All tracks accurately ripped

No errors occurred

End of status report

==== Log checksum 729FC12B9FED4DC7E02BF7DD58297CE66C0DECD120718B26EBDD2DC07CAA1B41 ====
Код:
Код:
-----------------------

DON'T MODIFY THIS FILE

-----------------------

PERFORMER: auCDtect Task Manager, ver. 1.6.0 RC1 build 1.6.0.1
Copyright (c) 2008-2010 y-soft. All rights reserved
http:/y-soft.org

ANALYZER: auCDtect: CD records authenticity detector, version 0.8.2
Copyright (c) 2004 Oleg Berngardt. All rights reserved.
Copyright (c) 2004 Alexander Djourik. All rights reserved.

FILE: 07 Gone So Long.flac
  Size: 30716543 Hash: B0A06E7B837391E3DC4192ECEE692E78 Accuracy: -m0
  Conclusion: CDDA 100%
  Signature: 33AAEB8658390C48B06BA093A62C72C956F1983C
FILE: 06 Sweat It Out.flac
  Size: 28974687 Hash: C58B17CEC935CD822D22FA06DB90FAE4 Accuracy: -m0
  Conclusion: CDDA 100%
  Signature: 8FA5FCF0D637FFFA589995913C0C4CCD398E5C6C
FILE: 05 Last Night (Vegas).flac
  Size: 26410696 Hash: 1625065C13462535D1521C8C696E2569 Accuracy: -m0
  Conclusion: CDDA 100%
  Signature: 42F33C31580729A3CA9CB86221B42FD5A630ABB6
FILE: 04 Edge of Heaven.flac
  Size: 27718685 Hash: E02A481B7B76D6D8B7D3CEFD1479BB1E Accuracy: -m0
  Conclusion: CDDA 100%
  Signature: 19789BE985E8C60DF13F585A2000647CEBA365D4
FILE: 03 Blackout.flac
  Size: 26974586 Hash: 8832B0FBDF7E1962F1FCECBFB74B5A56 Accuracy: -m0
  Conclusion: CDDA 100%
  Signature: CDCB90951912BAEDBDEA54228F69A8C4CA52A09B
FILE: 02 Wooly.flac
  Size: 29732325 Hash: DC405B4165BF05EB88D3325866B7A46B Accuracy: -m0
  Conclusion: CDDA 99%
  Signature: 6FB0F0E2BCE641A5E6242753F9AB6D243CDD2127
FILE: 01 Rebirth- An Introduction.flac
  Size: 6161516 Hash: 8F6CB838553B9658245EEA5D199B6D4A Accuracy: -m0
  Conclusion: CDDA 99%
  Signature: 9E3174B5BFE2DD73103FD1C69678BB65F9605293
FILE: 13 Lauren's Song.flac
  Size: 27527002 Hash: AD4E9E04722140003FD5E4C7A3709C98 Accuracy: -m0
  Conclusion: CDDA 100%
  Signature: 7EA6B4198CA5342AFD99999C55C4C4A9C09AC83F
FILE: 12 Chemicals.flac
  Size: 24995530 Hash: A096E7C16B4DCA94FC0C9688930D32A4 Accuracy: -m0
  Conclusion: CDDA 100%
  Signature: 9DCC00C7DE185D526021ABB7D3564B60EFB0AD9E
FILE: 11 Take It Back.flac
  Size: 24847378 Hash: 90E3D4B455A0FC6387522CD678C9F47A Accuracy: -m0
  Conclusion: CDDA 100%
  Signature: 80AE0FF485547DC2EA48E9F67A6C1F1CD6C72E32
FILE: 10 Waiting.flac
  Size: 32051724 Hash: 31BC17E51723B7E65AB78B65D29ACA08 Accuracy: -m0
  Conclusion: CDDA 100%
  Signature: CE2934DFA844DED022C2B1969EF5A9A0F8BEB7BC
FILE: 09 Get Off Easy.flac
  Size: 26517016 Hash: F2C048FF3F040C7DA64F37D70B739841 Accuracy: -m0
  Conclusion: CDDA 100%
  Signature: 88122B611DC380B1B9FCEB4F026A2BB4765EDCE1
FILE: 08 They Say You Won't Come Back.flac
  Size: 32381962 Hash: 6006AFC81C90D9C1438FBB68DD6769C2 Accuracy: -m0
  Conclusion: CDDA 100%
  Signature: F5503AB31B3661D0A2BE0FCF73817300A61B9671


Если вам понравился альбом, пожалуйста, купите CD, поддержите исполнителя!
Правила, инструкции, FAQ!!!
Торрент  Добавлен [16 мар 2014, 00:47] Скачать торрент Магнет ссылка
Скачать торрент
[ Размер 14.83 КБ / Просмотров 36 ]

Статус  
 
Размер  333.08 МБ
Приватный: Нет (DHT включён)
.torrent скачан  1
 


     Отправить личное сообщение
   
Страница 1 из 1
Показать сообщения за:  Поле сортировки  
Начать новую тему Ответить на тему


Сейчас этот форум просматривают: нет зарегистрированных пользователей и гости: 0


Вы не можете начинать темы
Вы не можете отвечать на сообщения
Вы не можете редактировать свои сообщения
Вы не можете удалять свои сообщения
Вы не можете добавлять вложения

Перейти:  
cron