Начать новую тему Ответить на тему
Статистика раздачи
Размер: 395.59 МБ | Добавлен: 16 мар 2014, 00:14 | Скачали: 0
Сидеров: 1  [0 байт/сек]    Личеров: 0  [0 байт/сек]
Пред. тема | След. тема 

Автор
Сообщение

СообщениеДобавлено: 16 мар 2014, 00:14 

Ответить с цитатой 

Bram Stoker - Cold Reading (2013)

Год: 2013
Страна-производитель диска: UK
Издатель (лейбл): Sunn Creative
Номер по каталогу #: SUNNC1301
Жанр: Progressive Rock
Продолжительность: 00:55:00

Кодек: FLAC (*.flac)
Битрейт: Lossless
Тип рипа: tracks+.cue
Спасибо: dnoz

Треклист:
01 - Climbing the Gyroscope [04:47]
02 - Cold Reading [04:24]
03 - Fast Decay [04:34]
04 - Calling Me Home [05:36]
05 - Chasing Red [07:22]
06 - Joust [04:46]
07 - New Adventure [05:05]
08 - Like Autumn Now [05:39]
09 - Fingal's Cave [06:39]
10 - Light at the End of the Tunnel [05:57]
Код:
Код:
Exact Audio Copy V1.0 beta 3 from 29. August 2011

EAC extraction logfile from 4. December 2013, 13:00

Bram Stoker / Cold Reading

Used drive  : ASUS    DRW-1608P3S   Adapter: 1  ID: 1

Read mode               : Secure
Utilize accurate stream : Yes
Defeat audio cache      : Yes
Make use of C2 pointers : No

Read offset correction                      : 48
Overread into Lead-In and Lead-Out          : No
Fill up missing offset samples with silence : Yes
Delete leading and trailing silent blocks   : No
Null samples used in CRC calculations       : Yes
Used interface                              : Installed external ASPI interface
Gap handling                                : Appended to previous track

Used output format              : User Defined Encoder
Selected bitrate                : 128 kBit/s
Quality                         : High
Add ID3 tag                     : No
Command line compressor         : C:\Program Files\Exact Audio Copy\Flac\flac.exe
Additional command line options : -V -8 -T "Date=%year%" -T "Genre=%genre%" %source%

TOC of the extracted CD

     Track |   Start  |  Length  | Start sector | End sector
    ---------------------------------------------------------
        1  |  0:00.00 |  4:47.46 |         0    |    21570
        2  |  4:47.46 |  4:24.06 |     21571    |    41376
        3  |  9:11.52 |  4:34.29 |     41377    |    61955
        4  | 13:46.06 |  5:36.10 |     61956    |    87165
        5  | 19:22.16 |  7:22.02 |     87166    |   120317
        6  | 26:44.18 |  4:46.11 |    120318    |   141778
        7  | 31:30.29 |  5:05.18 |    141779    |   164671
        8  | 36:35.47 |  5:39.07 |    164672    |   190103
        9  | 42:14.54 |  6:39.29 |    190104    |   220057
       10  | 48:54.08 |  5:57.51 |    220058    |   246883

Track  1

     Filename E:\bzp01\Bram Stoker - Cold Reading (2013) [FLAC] {SUNNC1301}\01 - Climbing the Gyroscope.wav

     Pre-gap length  0:00:02.00

     Peak level 96.6 %
     Extraction speed 4.7 X
     Track quality 100.0 %
     Test CRC AD684728
     Copy CRC AD684728
     Track not present in AccurateRip database
     Copy OK

Track  2

     Filename E:\bzp01\Bram Stoker - Cold Reading (2013) [FLAC] {SUNNC1301}\02 - Cold Reading.wav

     Peak level 89.3 %
     Extraction speed 5.2 X
     Track quality 100.0 %
     Test CRC 4EDBEDEF
     Copy CRC 4EDBEDEF
     Track not present in AccurateRip database
     Copy OK

Track  3

     Filename E:\bzp01\Bram Stoker - Cold Reading (2013) [FLAC] {SUNNC1301}\03 - Fast Decay.wav

     Peak level 80.3 %
     Extraction speed 5.5 X
     Track quality 100.0 %
     Test CRC F4930C43
     Copy CRC F4930C43
     Track not present in AccurateRip database
     Copy OK

Track  4

     Filename E:\bzp01\Bram Stoker - Cold Reading (2013) [FLAC] {SUNNC1301}\04 - Calling Me Home.wav

     Peak level 94.4 %
     Extraction speed 6.1 X
     Track quality 100.0 %
     Test CRC 7A224CEF
     Copy CRC 7A224CEF
     Track not present in AccurateRip database
     Copy OK

Track  5

     Filename E:\bzp01\Bram Stoker - Cold Reading (2013) [FLAC] {SUNNC1301}\05 - Chasing Red.wav

     Peak level 78.1 %
     Extraction speed 6.8 X
     Track quality 100.0 %
     Test CRC 0364945E
     Copy CRC 0364945E
     Track not present in AccurateRip database
     Copy OK

Track  6

     Filename E:\bzp01\Bram Stoker - Cold Reading (2013) [FLAC] {SUNNC1301}\06 - Joust.wav

     Peak level 82.7 %
     Extraction speed 6.2 X
     Track quality 99.9 %
     Test CRC 3D306137
     Copy CRC 3D306137
     Track not present in AccurateRip database
     Copy OK

Track  7

     Filename E:\bzp01\Bram Stoker - Cold Reading (2013) [FLAC] {SUNNC1301}\07 - New Adventure.wav

     Peak level 80.3 %
     Extraction speed 7.1 X
     Track quality 100.0 %
     Test CRC FE80FE68
     Copy CRC FE80FE68
     Track not present in AccurateRip database
     Copy OK

Track  8

     Filename E:\bzp01\Bram Stoker - Cold Reading (2013) [FLAC] {SUNNC1301}\08 - Like Autumn Now.wav

     Peak level 83.1 %
     Extraction speed 7.5 X
     Track quality 100.0 %
     Test CRC 5D3F67AB
     Copy CRC 5D3F67AB
     Track not present in AccurateRip database
     Copy OK

Track  9

     Filename E:\bzp01\Bram Stoker - Cold Reading (2013) [FLAC] {SUNNC1301}\09 - Fingal's Cave.wav

     Peak level 82.2 %
     Extraction speed 7.3 X
     Track quality 99.9 %
     Test CRC 85BC3AA6
     Copy CRC 85BC3AA6
     Track not present in AccurateRip database
     Copy OK

Track 10

     Filename E:\bzp01\Bram Stoker - Cold Reading (2013) [FLAC] {SUNNC1301}\10 - Light at the End of the Tunnel.wav

     Peak level 100.0 %
     Extraction speed 8.1 X
     Track quality 100.0 %
     Test CRC 8BBF7031
     Copy CRC 8BBF7031
     Track not present in AccurateRip database
     Copy OK

None of the tracks are present in the AccurateRip database

No errors occurred

End of status report

==== Log checksum 839DD0351B244AC7445474E5093F567057B363944CF4B7A8024C72A0A118E317 ====
Код:
Код:
-----------------------

DON'T MODIFY THIS FILE

-----------------------

PERFORMER: auCDtect Task Manager, ver. 1.6.0 RC1 build 1.6.0.1
Copyright (c) 2008-2010 y-soft. All rights reserved
http:/y-soft.org

ANALYZER: auCDtect: CD records authenticity detector, version 0.8.2
Copyright (c) 2004 Oleg Berngardt. All rights reserved.
Copyright (c) 2004 Alexander Djourik. All rights reserved.

FILE: 10 - Light at the End of the Tunnel.flac
  Size: 39036204 Hash: F4872419A123CE0D2EB32349C2388FB9 Accuracy: -m0
  Conclusion: CDDA 100%
  Signature: 0B3C28933951D5A6C62928667A1F8D397F636AE0
FILE: 09 - Fingal's Cave.flac
  Size: 39864472 Hash: CA876464FC1244C03C80A3BD15FD544A Accuracy: -m0
  Conclusion: CDDA 99%
  Signature: A2D64A450D4512DE850B83A4AD32B9D571556AE0
FILE: 08 - Like Autumn Now.flac
  Size: 36658754 Hash: D851B87F709DCAA25F92349701BD0E87 Accuracy: -m0
  Conclusion: CDDA 100%
  Signature: 2CFB4C78F5ADF8EFF1C63D18640E0368A0C4AF5E
FILE: 07 - New Adventure.flac
  Size: 35524138 Hash: 4AB9731F259F70EDF7F5DF11DEFBA382 Accuracy: -m0
  Conclusion: CDDA 100%
  Signature: A845564F7ECCA49CACF80EF189D78BAA3631FD83
FILE: 06 - Joust.flac
  Size: 33257559 Hash: 50E5F3307DB669BA5E9E15E729209355 Accuracy: -m0
  Conclusion: CDDA 100%
  Signature: 8DF9319CD31EE0CC6DC842BC58FD282E66A8EAD1
FILE: 05 - Chasing Red.flac
  Size: 45836034 Hash: 2EC05502D57DCA5702BBAF61F25E9B15 Accuracy: -m0
  Conclusion: CDDA 100%
  Signature: A139367EF84AA7F12D37ACFD2DE9728B6C233209
FILE: 04 - Calling Me Home.flac
  Size: 36941832 Hash: 1EB8B744211C7A5EDBD4FFDC60511B0C Accuracy: -m0
  Conclusion: CDDA 100%
  Signature: FBAE9923770FCBD4B218AD5BC5F9B7C65AD47372
FILE: 03 - Fast Decay.flac
  Size: 31537621 Hash: 2413650D6B20D73F04B34E818ED33529 Accuracy: -m0
  Conclusion: CDDA 100%
  Signature: FD5DB64D7E92116B735BBD08C252BEDB8C71836D
FILE: 02 - Cold Reading.flac
  Size: 29713444 Hash: 2FD48E27EC1F8BC98A7343ED97DAA849 Accuracy: -m0
  Conclusion: CDDA 100%
  Signature: 21579212744949BD0D12FB34D59F89EF8BF08D9C
FILE: 01 - Climbing the Gyroscope.flac
  Size: 29640362 Hash: 05B1277DC7210A33EACDBA6DE7A9118F Accuracy: -m0
  Conclusion: CDDA 99%
  Signature: EFF2B58333236BD90726653FA8D157274C044951
Код:
Код:
REM GENRE "Progressive Rock"
REM DATE 2013
REM DISCID 980CDB0A
REM COMMENT "ExactAudioCopy v1.0b3"
PERFORMER "Bram Stoker"
TITLE "Cold Reading"
FILE "01 - Climbing the Gyroscope.wav" WAVE
  TRACK 01 AUDIO
    TITLE "Climbing the Gyroscope"
    PERFORMER "Bram Stoker"
    INDEX 01 00:00:00
FILE "02 - Cold Reading.wav" WAVE
  TRACK 02 AUDIO
    TITLE "Cold Reading"
    PERFORMER "Bram Stoker"
    INDEX 01 00:00:00
FILE "03 - Fast Decay.wav" WAVE
  TRACK 03 AUDIO
    TITLE "Fast Decay"
    PERFORMER "Bram Stoker"
    INDEX 01 00:00:00
FILE "04 - Calling Me Home.wav" WAVE
  TRACK 04 AUDIO
    TITLE "Calling Me Home"
    PERFORMER "Bram Stoker"
    INDEX 01 00:00:00
FILE "05 - Chasing Red.wav" WAVE
  TRACK 05 AUDIO
    TITLE "Chasing Red"
    PERFORMER "Bram Stoker"
    INDEX 01 00:00:00
FILE "06 - Joust.wav" WAVE
  TRACK 06 AUDIO
    TITLE "Joust"
    PERFORMER "Bram Stoker"
    INDEX 01 00:00:00
FILE "07 - New Adventure.wav" WAVE
  TRACK 07 AUDIO
    TITLE "New Adventure"
    PERFORMER "Bram Stoker"
    INDEX 01 00:00:00
FILE "08 - Like Autumn Now.wav" WAVE
  TRACK 08 AUDIO
    TITLE "Like Autumn Now"
    PERFORMER "Bram Stoker"
    INDEX 01 00:00:00
FILE "09 - Fingal's Cave.wav" WAVE
  TRACK 09 AUDIO
    TITLE "Fingal's Cave"
    PERFORMER "Bram Stoker"
    INDEX 01 00:00:00
FILE "10 - Light at the End of the Tunnel.wav" WAVE
  TRACK 10 AUDIO
    TITLE "Light at the End of the Tunnel"
    PERFORMER "Bram Stoker"
    INDEX 01 00:00:00

Правила, инструкции, FAQ!!!
Торрент  Добавлен [16 мар 2014, 00:14] Скачать торрент Магнет ссылка
Скачать торрент
[ Размер 17.2 КБ / Просмотров 19 ]

Статус  
 
Размер  395.59 МБ
Приватный: Нет (DHT включён)
.torrent скачан  0
 


     Отправить личное сообщение
   
Страница 1 из 1
Показать сообщения за:  Поле сортировки  
Начать новую тему Ответить на тему


Сейчас этот форум просматривают: нет зарегистрированных пользователей и гости: 0


Вы не можете начинать темы
Вы не можете отвечать на сообщения
Вы не можете редактировать свои сообщения
Вы не можете удалять свои сообщения
Вы не можете добавлять вложения

Перейти:  
cron