Начать новую тему Ответить на тему
Статистика раздачи
Размер: 496.73 МБ | Добавлен: 16 мар 2014, 00:38 | Скачали: 31
Сидеров: 12  [0 байт/сек]    Личеров: 1  [0 байт/сек]
Пред. тема | След. тема 

Автор
Сообщение

СообщениеДобавлено: 16 мар 2014, 00:38 

Ответить с цитатой 

BrainStorm - The Best of (2013)

Год: 2013
Страна-производитель диска: Латвия
Издатель (лейбл): BrainStorm records
Номер по каталогу #: BRCD230
Жанр: Alternative, Brit-pop, pop-rock
Продолжительность: 01:14:15

Кодек: FLAC (*.flac)
Битрейт: Lossless
Тип рипа: image+.cue
Спасибо: anatolij51

Треклист:
01. Maybe (4:12)
02. My Star (3:04)
03. Гори, гори ясно (3:53)
04. Ветер (3:51)
05. Скользкие улицы (feat."БИ-2") (4:20)
06. Выходные (2:59)
07. Thunder Without Rain (4:41)
08. Colder (3:50)
09. Чайки на крышах (4:44)
10. Ты не один (4:42)
11. На заре (4:32)
12. Lantern (4:29)
13. Шаг (5:14)
14. Волны (3:15)
15. Только бы ты на меня посмотрела (3:43)
16. Миллионы минут (3:35)
17. Under My Wing (Is Your Sweet Home) (4:36)
18. Butterfly in a Bottle (4:02)
Код:
Код:
Exact Audio Copy V1.0 beta 3 from 29. August 2011

Отчёт EAC об извлечении, выполненном 17. ноября 2013, 8:22

BrainStorm / The Best of

Дисковод: PLEXTOR CD-R   PREMIUM2   Adapter: 0  ID: 0

Режим чтения                 : Достоверность
Использование точного потока : Да
Отключение кэша аудио        : Да
Использование указателей C2  : Нет

Коррекция смещения при чтении                     : 30
Способность читать области Lead-in и Lead-out     : Да
Заполнение пропущенных сэмплов тишиной            : Да
Удаление блоков с тишиной в начале и конце        : Нет
При вычислениях CRC использовались нулевые сэмплы : Да
Интерфейс                                         : Установленный внешний ASPI-интерфейс

Выходной формат          : Пользовательский кодировщик
Выбранный битрейт        : 1024 kBit/s
Качество                 : Высокий
Добавление ID3-тега      : Нет
Утилита сжатия           : C:\Program Files\Exact Audio Copy\FLAC\FLAC.EXE
Дополнительные параметры : -6 -V -T "ARTIST=%artist%" -T "TITLE=%title%" -T "ALBUM=%albumtitle%" -T "DATE=%year%" -T "TRACKNUMBER=%tracknr%" -T "GENRE=%genre%" -T "COMMENT=%comment%" -T "BAND=%albuminterpret%" -T "ALBUMARTIST=%albuminterpret%" -T "COMPOSER=%composer%" %haslyrics%--tag-from-file=LYRICS="%lyricsfile%"%haslyrics% -T "DISCNUMBER=%cdnumber%" -T "TOTALDISCS=%totalcds%" -T "TOTALTRACKS=%numtracks%" %hascover%--picture="%coverfile%"%hascover% %source% -o %dest%

TOC извлечённого CD

     Трек |   Старт  | Длительность | Начальный сектор | Конечный сектор
    ---------------------------------------------------------------------
       1  |  0:00.00 |    4:14.21   |           0      |      19070
       2  |  4:14.21 |    3:05.52   |       19071      |      32997
       3  |  7:19.73 |    3:54.45   |       32998      |      50592
       4  | 11:14.43 |    3:52.42   |       50593      |      68034
       5  | 15:07.10 |    4:21.63   |       68035      |      87672
       6  | 19:28.73 |    3:01.19   |       87673      |     101266
       7  | 22:30.17 |    4:42.09   |      101267      |     122425
       8  | 27:12.26 |    3:51.45   |      122426      |     139795
       9  | 31:03.71 |    4:46.48   |      139796      |     161293
      10  | 35:50.44 |    4:44.39   |      161294      |     182632
      11  | 40:35.08 |    4:33.64   |      182633      |     203171
      12  | 45:08.72 |    4:31.59   |      203172      |     223555
      13  | 49:40.56 |    5:15.42   |      223556      |     247222
      14  | 54:56.23 |    3:16.37   |      247223      |     261959
      15  | 58:12.60 |    3:45.61   |      261960      |     278895
      16  | 61:58.46 |    3:38.18   |      278896      |     295263
      17  | 65:36.64 |    4:38.13   |      295264      |     316126
      18  | 70:15.02 |    4:04.58   |      316127      |     334484

Характеристики диапазона извлечения и сообщения об ошибках

Выбранный диапазон

     Имя файла C:\Documents and Settings\Anatolij\Мои документы\BrainStorm - The Best of\BrainStorm - The Best of.wav

     Пиковый уровень 97.7 %
     Скорость извлечения 14.2 X
     Качество диапазона 100.0 %
     CRC теста 17E5D6EA
     CRC копии 17E5D6EA
     Копирование... OK

Ошибок не произошло

AccurateRip: сводка

Трек  1  отсутствует в базе данных
Трек  2  отсутствует в базе данных
Трек  3  отсутствует в базе данных
Трек  4  отсутствует в базе данных
Трек  5  отсутствует в базе данных
Трек  6  отсутствует в базе данных
Трек  7  отсутствует в базе данных
Трек  8  отсутствует в базе данных
Трек  9  отсутствует в базе данных
Трек 10  отсутствует в базе данных
Трек 11  отсутствует в базе данных
Трек 12  отсутствует в базе данных
Трек 13  отсутствует в базе данных
Трек 14  отсутствует в базе данных
Трек 15  отсутствует в базе данных
Трек 16  отсутствует в базе данных
Трек 17  отсутствует в базе данных
Трек 18  отсутствует в базе данных

Ни одного трека нет в базе AccurateRip

Конец отчёта

---- CUETools DB Plugin V2.1.3

[CTDB TOCID: 87b6.8bGDPJEMobAZIyjDPfd77c-] found, Submit result: already submitted
[92620401] (1/1) Accurately ripped

==== Контрольная сумма отчёта 2C6490C97C072AA4048C70BCE6DC640BBC9F6F36B95E4AB9449FCF978A87B500 ====
Код:
Код:
-----------------------

DON'T MODIFY THIS FILE

-----------------------

PERFORMER: auCDtect Task Manager, ver. 1.6.0 RC1 build 1.6.0.1
Copyright (c) 2008-2010 y-soft. All rights reserved
http:/y-soft.org

ANALYZER: auCDtect: CD records authenticity detector, version 0.8.2
Copyright (c) 2004 Oleg Berngardt. All rights reserved.
Copyright (c) 2004 Alexander Djourik. All rights reserved.

FILE: BrainStorm - The Best of.flac
  Size: 518002365 Hash: CD0979DCF767CE7D6A1666DEA92FAA2C Accuracy: -m0
  Conclusion: CDDA 100%
  Signature: 052054D0CC41825869EEEC3F7AD31CB98724430D
Код:
Код:

REM GENRE Alternative
REM DATE 2013
REM DISCID 08116B12
REM COMMENT "ExactAudioCopy v1.0b3"
PERFORMER "BrainStorm"
TITLE "The Best of"
FILE "BrainStorm - The Best of.flac" WAVE
  TRACK 01 AUDIO
    TITLE "Maybe"
    PERFORMER "BrainStorm"
    INDEX 01 00:00:00
  TRACK 02 AUDIO
    TITLE " My Star"
    PERFORMER "BrainStorm"
    INDEX 00 04:13:30
    INDEX 01 04:14:21
  TRACK 03 AUDIO
    TITLE "Гори, гори ясно"
    PERFORMER "BrainStorm"
    INDEX 00 07:18:71
    INDEX 01 07:19:73
  TRACK 04 AUDIO
    TITLE " Ветер"
    PERFORMER "BrainStorm"
    INDEX 00 11:14:06
    INDEX 01 11:14:43
  TRACK 05 AUDIO
    TITLE " Скользкие улицы (feat.'БИ-2')"
    PERFORMER "BrainStorm"
    INDEX 00 15:06:10
    INDEX 01 15:07:10
  TRACK 06 AUDIO
    TITLE " Выходные"
    PERFORMER "BrainStorm"
    INDEX 00 19:27:45
    INDEX 01 19:28:73
  TRACK 07 AUDIO
    TITLE "Thunder Without Rain"
    PERFORMER "BrainStorm"
    INDEX 00 22:28:10
    INDEX 01 22:30:17
  TRACK 08 AUDIO
    TITLE "Colder"
    PERFORMER "BrainStorm"
    INDEX 00 27:11:67
    INDEX 01 27:12:26
  TRACK 09 AUDIO
    TITLE "Чайки на крышах"
    PERFORMER "BrainStorm"
    INDEX 00 31:03:15
    INDEX 01 31:03:71
  TRACK 10 AUDIO
    TITLE "Ты не один"
    PERFORMER "BrainStorm"
    INDEX 00 35:48:33
    INDEX 01 35:50:44
  TRACK 11 AUDIO
    TITLE "На заре"
    PERFORMER "BrainStorm"
    INDEX 00 40:33:25
    INDEX 01 40:35:08
  TRACK 12 AUDIO
    TITLE "Lantern"
    PERFORMER "BrainStorm"
    INDEX 00 45:08:09
    INDEX 01 45:08:72
  TRACK 13 AUDIO
    TITLE "Шаг"
    PERFORMER "BrainStorm"
    INDEX 00 49:38:39
    INDEX 01 49:40:56
  TRACK 14 AUDIO
    TITLE "Волны"
    PERFORMER "BrainStorm"
    INDEX 00 54:55:05
    INDEX 01 54:56:23
  TRACK 15 AUDIO
    TITLE "Только бы ты на меня посмотрела"
    PERFORMER "BrainStorm"
    INDEX 00 58:11:60
    INDEX 01 58:12:60
  TRACK 16 AUDIO
    TITLE "Миллионы минут"
    PERFORMER "BrainStorm"
    INDEX 00 61:56:44
    INDEX 01 61:58:46
  TRACK 17 AUDIO
    TITLE "Under My Wing (Is Your Sweet Home)"
    PERFORMER "BrainStorm"
    INDEX 00 65:34:58
    INDEX 01 65:36:64
  TRACK 18 AUDIO
    TITLE "Butterfly in a Bottle"
    PERFORMER "BrainStorm"
    INDEX 00 70:13:04
    INDEX 01 70:15:02

Правила, инструкции, FAQ!!!
Торрент  Добавлен [16 мар 2014, 00:38] Скачать торрент Магнет ссылка
Скачать торрент
[ Размер 20.9 КБ / Просмотров 567 ]

Статус  
 
Размер  496.73 МБ
Приватный: Нет (DHT включён)
.torrent скачан  31
 


     Отправить личное сообщение
   
Страница 1 из 1
Показать сообщения за:  Поле сортировки  
Начать новую тему Ответить на тему


Сейчас этот форум просматривают: нет зарегистрированных пользователей и гости: 0


Вы не можете начинать темы
Вы не можете отвечать на сообщения
Вы не можете редактировать свои сообщения
Вы не можете удалять свои сообщения
Вы не можете добавлять вложения

Перейти:  
cron