Начать новую тему Ответить на тему
Статистика раздачи
Размер: 305.09 МБ | Добавлен: 22 июн 2020, 15:38 | Скачали: 0
Сидеров: 0  [0 байт/сек]    Личеров: 0  [0 байт/сек]
Пред. тема | След. тема 

Автор
Сообщение

СообщениеДобавлено: 22 июн 2020, 15:38 

Ответить с цитатой 


The Andrews Sisters - The Andrews Sisters - 2008 (Wagram Music)

Жанр: Bop, Easy Listening, Big Band, Vocal, Swing
Носитель: CD (compilation, archival)
Страна-производитель диска (релиза): France & Benelux
Год издания оригинала: 2008
Издатель (лейбл): Wagram Music
Номер по каталогу: 3133072
Страна исполнителя (группы): USA
Аудио кодек: FLAC (*.flac)
Тип рипа: (tracks + .cue)
Битрейт аудио: lossless
Наличие сканов в содержимом раздачи: full scans, jpeg png, 300 dpi
Продолжительность: 58:50
Источник (релизер): orpheus
Трэклист:
1. Boogie Woogie Bugle Boys
2. Rum And Coca Cola
3. Bei Mir Bist Du Schoën
4. Don't Sit Under The Apple Tree
5. Shoo Shoo Baby
6. Joseph Joseph
7. Begin The Beguine
8. Sabre Dance
9. Beer Barrel Polka
10. Guys And Dolls
11. The Woodpecker Song
12. The Wedding Of Lily Marlene
13. Red River Valley
14. With Bing Crosby - Have I Told You Lately I Love You
15. With Bing Crosby - Pistol Packin' Mama
16. With Danny Kaye - Big Brass Band From Brazil
17. With Danny Kaye - It's A Quiet Town
18. With Carmen Miranda - The Matador
19. With Al Jolson - The Old Piano Roll Blues
20. With Guy Lombardo - Dimples And Cherry Cheeks
Код:
Exact Audio Copy V1.3 from 2. September 2016
EAC extraction logfile from 7. January 2020, 11:06
The Andrews Sisters / The Andrew Sisters
Used drive  : hp      DVDRW GUE1N   Adapter: 1  ID: 0
Read mode               : Secure
Utilize accurate stream : Yes
Defeat audio cache      : Yes
Make use of C2 pointers : No
Read offset correction                      : 6
Overread into Lead-In and Lead-Out          : No
Fill up missing offset samples with silence : Yes
Delete leading and trailing silent blocks   : No
Null samples used in CRC calculations       : Yes
Used interface                              : Native Win32 interface for Win NT & 2000
Gap handling                                : Appended to previous track
Used output format              : User Defined Encoder
Selected bitrate                : 1024 kBit/s
Quality                         : High
Add ID3 tag                     : No
Command line compressor         : C:\Program Files (x86)\Exact Audio Copy\Flac\flac.exe
Additional command line options : -8 -e -p -V -T "ARTIST=%artist%" -T "TITLE=%title%" -T "ALBUM=%albumtitle%" -T "DATE=%year%" -T "TRACKNUMBER=%tracknr%" -T "GENRE=%genre%" -T "PERFORMER=%albuminterpret%" -T "COMPOSER=%composer%" %haslyrics%--tag-from-file=LYRICS="%lyricsfile%"%haslyrics% -T "ALBUMARTIST=%albumartist%" -T "DISCNUMBER=%cdnumber%" -T "TOTALDISCS=%totalcds%" -T "TOTALTRACKS=%numtracks%" -T "COMMENT=%comment%" %source% -o %dest%
TOC of the extracted CD
     Track |   Start  |  Length  | Start sector | End sector
    ---------------------------------------------------------
        1  |  0:00.00 |  2:45.17 |         0    |    12391
        2  |  2:45.17 |  3:09.20 |     12392    |    26586
        3  |  5:54.37 |  3:08.01 |     26587    |    40687
        4  |  9:02.38 |  2:58.24 |     40688    |    54061
        5  | 12:00.62 |  2:43.58 |     54062    |    66344
        6  | 14:44.45 |  3:22.44 |     66345    |    81538
        7  | 18:07.14 |  2:59.50 |     81539    |    95013
        8  | 21:06.64 |  2:49.47 |     95014    |   107735
        9  | 23:56.36 |  2:53.20 |    107736    |   120730
       10  | 26:49.56 |  3:13.71 |    120731    |   135276
       11  | 30:03.52 |  2:22.56 |    135277    |   145982
       12  | 32:26.33 |  3:09.18 |    145983    |   160175
       13  | 35:35.51 |  2:44.48 |    160176    |   172523
       14  | 38:20.24 |  3:00.73 |    172524    |   186096
       15  | 41:21.22 |  3:01.61 |    186097    |   199732
       16  | 44:23.08 |  3:00.10 |    199733    |   213242
       17  | 47:23.18 |  2:51.06 |    213243    |   226073
       18  | 50:14.24 |  2:44.47 |    226074    |   238420
       19  | 52:58.71 |  3:05.15 |    238421    |   252310
       20  | 56:04.11 |  2:46.32 |    252311    |   264792
Track  1
     Filename C:\The Andrews Sisters - The Andrews Sisters - FLAC\01 - Boogie Woogie Bugle Boys.wav
     Pre-gap length  0:00:02.00
     Peak level 98.8 %
     Extraction speed 1.1 X
     Track quality 100.0 %
     Test CRC FED53567
     Copy CRC FED53567
     Accurately ripped (confidence 4)  [EAE2D82A]  (AR v2)
     Copy OK
Track  2
     Filename C:\The Andrews Sisters - The Andrews Sisters - FLAC\02 - Rum And Coca Cola.wav
     Pre-gap length  0:00:02.00
     Peak level 98.8 %
     Extraction speed 1.2 X
     Track quality 100.0 %
     Test CRC 05891A93
     Copy CRC 05891A93
     Accurately ripped (confidence 4)  [7C642224]  (AR v2)
     Copy OK
Track  3
     Filename C:\The Andrews Sisters - The Andrews Sisters - FLAC\03 - Bei Mir Bist Du Schoen.wav
     Pre-gap length  0:00:02.00
     Peak level 98.8 %
     Extraction speed 1.3 X
     Track quality 100.0 %
     Test CRC F59152F4
     Copy CRC F59152F4
     Accurately ripped (confidence 4)  [47D79D3C]  (AR v2)
     Copy OK
Track  4
     Filename C:\The Andrews Sisters - The Andrews Sisters - FLAC\04 - Don't Sit Under The Apple Tree.wav
     Pre-gap length  0:00:02.00
     Peak level 98.8 %
     Extraction speed 1.4 X
     Track quality 100.0 %
     Test CRC DE7D6EE8
     Copy CRC DE7D6EE8
     Accurately ripped (confidence 4)  [024B3BDD]  (AR v2)
     Copy OK
Track  5
     Filename C:\The Andrews Sisters - The Andrews Sisters - FLAC\05 - Shoo Shoo Baby.wav
     Pre-gap length  0:00:02.00
     Peak level 98.8 %
     Extraction speed 1.4 X
     Track quality 100.0 %
     Test CRC 551AC2E0
     Copy CRC 551AC2E0
     Accurately ripped (confidence 4)  [8B7D7A14]  (AR v2)
     Copy OK
Track  6
     Filename C:\The Andrews Sisters - The Andrews Sisters - FLAC\06 - Joseph Joseph.wav
     Pre-gap length  0:00:02.00
     Peak level 98.8 %
     Extraction speed 1.6 X
     Track quality 100.0 %
     Test CRC 05EF318D
     Copy CRC 05EF318D
     Accurately ripped (confidence 4)  [A8B464F2]  (AR v2)
     Copy OK
Track  7
     Filename C:\The Andrews Sisters - The Andrews Sisters - FLAC\07 - Begin The Beguine.wav
     Pre-gap length  0:00:02.00
     Peak level 98.8 %
     Extraction speed 1.6 X
     Track quality 100.0 %
     Test CRC 61CEBE23
     Copy CRC 61CEBE23
     Accurately ripped (confidence 4)  [C693A55A]  (AR v2)
     Copy OK
Track  8
     Filename C:\The Andrews Sisters - The Andrews Sisters - FLAC\08 - Sabre Dance.wav
     Pre-gap length  0:00:02.00
     Peak level 98.8 %
     Extraction speed 1.4 X
     Track quality 99.9 %
     Test CRC 0297564D
     Copy CRC 0297564D
     Accurately ripped (confidence 4)  [5F228DFD]  (AR v2)
     Copy OK
Track  9
     Filename C:\The Andrews Sisters - The Andrews Sisters - FLAC\09 - Beer Barrel Polka.wav
     Pre-gap length  0:00:02.00
     Peak level 98.8 %
     Extraction speed 1.5 X
     Track quality 99.9 %
     Test CRC 84E7A0DD
     Copy CRC 84E7A0DD
     Accurately ripped (confidence 4)  [F6B63A95]  (AR v2)
     Copy OK
Track 10
     Filename C:\The Andrews Sisters - The Andrews Sisters - FLAC\10 - Guys And Dolls.wav
     Pre-gap length  0:00:02.00
     Peak level 98.8 %
     Extraction speed 1.8 X
     Track quality 100.0 %
     Test CRC 1399EE92
     Copy CRC 1399EE92
     Accurately ripped (confidence 4)  [1369335D]  (AR v2)
     Copy OK
Track 11
     Filename C:\The Andrews Sisters - The Andrews Sisters - FLAC\11 - The Woodpecker Song.wav
     Pre-gap length  0:00:02.00
     Peak level 98.8 %
     Extraction speed 1.5 X
     Track quality 99.9 %
     Test CRC 079EA847
     Copy CRC 079EA847
     Accurately ripped (confidence 4)  [C42FDD88]  (AR v2)
     Copy OK
Track 12
     Filename C:\The Andrews Sisters - The Andrews Sisters - FLAC\12 - The Wedding Of Lily Marlene.wav
     Pre-gap length  0:00:02.00
     Peak level 98.8 %
     Extraction speed 1.7 X
     Track quality 99.9 %
     Test CRC EE55B3EE
     Copy CRC EE55B3EE
     Accurately ripped (confidence 4)  [BB72A72A]  (AR v2)
     Copy OK
Track 13
     Filename C:\The Andrews Sisters - The Andrews Sisters - FLAC\13 - Red River Valley.wav
     Pre-gap length  0:00:02.00
     Peak level 98.8 %
     Extraction speed 1.6 X
     Track quality 99.9 %
     Test CRC 88C7B487
     Copy CRC 88C7B487
     Accurately ripped (confidence 4)  [5B73715E]  (AR v2)
     Copy OK
Track 14
     Filename C:\The Andrews Sisters - The Andrews Sisters - FLAC\14 - Have I Told You Lately I Love You.wav
     Pre-gap length  0:00:02.00
     Peak level 98.8 %
     Extraction speed 2.0 X
     Track quality 100.0 %
     Test CRC 04405237
     Copy CRC 04405237
     Accurately ripped (confidence 4)  [26021ADD]  (AR v2)
     Copy OK
Track 15
     Filename C:\The Andrews Sisters - The Andrews Sisters - FLAC\15 - Pistol Packin' Mama.wav
     Pre-gap length  0:00:02.00
     Peak level 98.8 %
     Extraction speed 2.1 X
     Track quality 100.0 %
     Test CRC 1D8E43C2
     Copy CRC 1D8E43C2
     Accurately ripped (confidence 4)  [403414C0]  (AR v2)
     Copy OK
Track 16
     Filename C:\The Andrews Sisters - The Andrews Sisters - FLAC\16 - Big Brass Band From Brazil.wav
     Pre-gap length  0:00:02.00
     Peak level 98.8 %
     Extraction speed 2.1 X
     Track quality 100.0 %
     Test CRC 96F602ED
     Copy CRC 96F602ED
     Accurately ripped (confidence 4)  [78802BB3]  (AR v2)
     Copy OK
Track 17
     Filename C:\The Andrews Sisters - The Andrews Sisters - FLAC\17 - It's A Quiet Town.wav
     Pre-gap length  0:00:02.00
     Peak level 98.8 %
     Extraction speed 2.2 X
     Track quality 100.0 %
     Test CRC BC117E6E
     Copy CRC BC117E6E
     Accurately ripped (confidence 4)  [1DD52B4F]  (AR v2)
     Copy OK
Track 18
     Filename C:\The Andrews Sisters - The Andrews Sisters - FLAC\18 - The Matador.wav
     Pre-gap length  0:00:02.00
     Peak level 98.8 %
     Extraction speed 2.2 X
     Track quality 100.0 %
     Test CRC 669C1B61
     Copy CRC 669C1B61
     Accurately ripped (confidence 4)  [6CA304A1]  (AR v2)
     Copy OK
Track 19
     Filename C:\The Andrews Sisters - The Andrews Sisters - FLAC\19 - The Old Piano Roll Blues.wav
     Pre-gap length  0:00:02.00
     Peak level 98.8 %
     Extraction speed 2.3 X
     Track quality 100.0 %
     Test CRC A264FEEA
     Copy CRC A264FEEA
     Accurately ripped (confidence 4)  [A7EF85E1]  (AR v2)
     Copy OK
Track 20
     Filename C:\The Andrews Sisters - The Andrews Sisters - FLAC\20 - Dimples And Cherry Cheeks.wav
     Pre-gap length  0:00:02.00
     Peak level 98.8 %
     Extraction speed 2.3 X
     Track quality 100.0 %
     Test CRC A8222073
     Copy CRC A8222073
     Accurately ripped (confidence 4)  [07570275]  (AR v2)
     Copy OK
All tracks accurately ripped
No errors occurred
End of status report
==== Log checksum 972CDF3515ABD0A3539386CF55E9299BBEB74E8A099F751F53962C6C1B0D123B ====
Код:
REM GENRE Vocal
REM DATE 2008
REM DISCID 200DCA14
REM COMMENT "ExactAudioCopy v1.3"
PERFORMER "The Andrews Sisters"
TITLE "The Andrew Sisters"
REM COMPOSER ""
FILE "01 - Boogie Woogie Bugle Boys.wav" WAVE
  TRACK 01 AUDIO
    TITLE "Boogie Woogie Bugle Boys"
    PERFORMER "The Andrews Sisters"
    REM COMPOSER ""
    INDEX 01 00:00:00
  TRACK 02 AUDIO
    TITLE "Rum And Coca Cola"
    PERFORMER "The Andrews Sisters"
    REM COMPOSER ""
    INDEX 00 02:43:17
FILE "02 - Rum And Coca Cola.wav" WAVE
    INDEX 01 00:00:00
  TRACK 03 AUDIO
    TITLE "Bei Mir Bist Du Schoen"
    PERFORMER "The Andrews Sisters"
    REM COMPOSER ""
    INDEX 00 03:07:20
FILE "03 - Bei Mir Bist Du Schoen.wav" WAVE
    INDEX 01 00:00:00
  TRACK 04 AUDIO
    TITLE "Don't Sit Under The Apple Tree"
    PERFORMER "The Andrews Sisters"
    REM COMPOSER ""
    INDEX 00 03:06:01
FILE "04 - Don't Sit Under The Apple Tree.wav" WAVE
    INDEX 01 00:00:00
  TRACK 05 AUDIO
    TITLE "Shoo Shoo Baby"
    PERFORMER "The Andrews Sisters"
    REM COMPOSER ""
    INDEX 00 02:56:24
FILE "05 - Shoo Shoo Baby.wav" WAVE
    INDEX 01 00:00:00
  TRACK 06 AUDIO
    TITLE "Joseph Joseph"
    PERFORMER "The Andrews Sisters"
    REM COMPOSER ""
    INDEX 00 02:41:58
FILE "06 - Joseph Joseph.wav" WAVE
    INDEX 01 00:00:00
  TRACK 07 AUDIO
    TITLE "Begin The Beguine"
    PERFORMER "The Andrews Sisters"
    REM COMPOSER ""
    INDEX 00 03:20:44
FILE "07 - Begin The Beguine.wav" WAVE
    INDEX 01 00:00:00
  TRACK 08 AUDIO
    TITLE "Sabre Dance"
    PERFORMER "The Andrews Sisters"
    REM COMPOSER ""
    INDEX 00 02:57:50
FILE "08 - Sabre Dance.wav" WAVE
    INDEX 01 00:00:00
  TRACK 09 AUDIO
    TITLE "Beer Barrel Polka"
    PERFORMER "The Andrews Sisters"
    REM COMPOSER ""
    INDEX 00 02:47:47
FILE "09 - Beer Barrel Polka.wav" WAVE
    INDEX 01 00:00:00
  TRACK 10 AUDIO
    TITLE "Guys And Dolls"
    PERFORMER "The Andrews Sisters"
    REM COMPOSER ""
    INDEX 00 02:51:20
FILE "10 - Guys And Dolls.wav" WAVE
    INDEX 01 00:00:00
  TRACK 11 AUDIO
    TITLE "The Woodpecker Song"
    PERFORMER "The Andrews Sisters"
    REM COMPOSER ""
    INDEX 00 03:11:71
FILE "11 - The Woodpecker Song.wav" WAVE
    INDEX 01 00:00:00
  TRACK 12 AUDIO
    TITLE "The Wedding Of Lily Marlene"
    PERFORMER "The Andrews Sisters"
    REM COMPOSER ""
    INDEX 00 02:20:56
FILE "12 - The Wedding Of Lily Marlene.wav" WAVE
    INDEX 01 00:00:00
  TRACK 13 AUDIO
    TITLE "Red River Valley"
    PERFORMER "The Andrews Sisters"
    REM COMPOSER ""
    INDEX 00 03:07:18
FILE "13 - Red River Valley.wav" WAVE
    INDEX 01 00:00:00
  TRACK 14 AUDIO
    TITLE "Have I Told You Lately I Love You"
    PERFORMER "The Andrews Sisters"
    REM COMPOSER ""
    INDEX 00 02:42:48
FILE "14 - Have I Told You Lately I Love You.wav" WAVE
    INDEX 01 00:00:00
  TRACK 15 AUDIO
    TITLE "Pistol Packin' Mama"
    PERFORMER "The Andrews Sisters"
    REM COMPOSER ""
    INDEX 00 02:58:73
FILE "15 - Pistol Packin' Mama.wav" WAVE
    INDEX 01 00:00:00
  TRACK 16 AUDIO
    TITLE "Big Brass Band From Brazil"
    PERFORMER "The Andrews Sisters"
    REM COMPOSER ""
    INDEX 00 02:59:61
FILE "16 - Big Brass Band From Brazil.wav" WAVE
    INDEX 01 00:00:00
  TRACK 17 AUDIO
    TITLE "It's A Quiet Town"
    PERFORMER "The Andrews Sisters"
    REM COMPOSER ""
    INDEX 00 02:58:10
FILE "17 - It's A Quiet Town.wav" WAVE
    INDEX 01 00:00:00
  TRACK 18 AUDIO
    TITLE "The Matador"
    PERFORMER "The Andrews Sisters"
    REM COMPOSER ""
    INDEX 00 02:49:06
FILE "18 - The Matador.wav" WAVE
    INDEX 01 00:00:00
  TRACK 19 AUDIO
    TITLE "The Old Piano Roll Blues"
    PERFORMER "The Andrews Sisters"
    REM COMPOSER ""
    INDEX 00 02:42:47
FILE "19 - The Old Piano Roll Blues.wav" WAVE
    INDEX 01 00:00:00
  TRACK 20 AUDIO
    TITLE "Dimples And Cherry Cheeks"
    PERFORMER "The Andrews Sisters"
    REM COMPOSER ""
    INDEX 00 03:03:15
FILE "20 - Dimples And Cherry Cheeks.wav" WAVE
    INDEX 01 00:00:00
Код:
-----------------------
DON'T MODIFY THIS FILE
-----------------------
PERFORMER: auCDtect Task Manager, ver. 1.6.0 RC1 build 1.6.0.1
Copyright (c) 2008-2010 y-soft. All rights reserved
[url=http://y-soft.org]http://y-soft.org[/url]
ANALYZER: auCDtect: CD records authenticity detector, version 0.8.2
Copyright (c) 2004 Oleg Berngardt. All rights reserved.
Copyright (c) 2004 Alexander Djourik. All rights reserved.
FILE: 20 - Dimples And Cherry Cheeks.flac
  Size: 14499829 Hash: 2F0973585C51021A126338336A4388AE Accuracy: -m0
  Conclusion: CDDA 43%
  Signature: 2F252933B6861AF61E5B828CE2B9447C287B159C
FILE: 19 - The Old Piano Roll Blues.flac
  Size: 16653545 Hash: 1F127AEDE51922F5D888F2AD136EB2F9 Accuracy: -m0
  Conclusion: CDDA 58%
  Signature: 96E91ED5073ED69BFCB1EC9361EABC9307AD89ED
FILE: 18 - The Matador.flac
  Size: 16365501 Hash: 02C77BFC9C0C0BB3194F6DA47E3E7559 Accuracy: -m0
  Conclusion: CDDA 99%
  Signature: 4CC5CE0698E8D62B7DA78F95D93F8F0A596FDF45
FILE: 17 - It's A Quiet Town.flac
  Size: 15530485 Hash: 7ABB69D1B78B0C330DC7EE45D017AC6E Accuracy: -m0
  Conclusion: CDDA 94%
  Signature: F8DCEB35319211B8B64285A5D03755136EE91DCB
FILE: 16 - Big Brass Band From Brazil.flac
  Size: 16927274 Hash: CEB3EE6A4003D93E29018A30BB90A351 Accuracy: -m0
  Conclusion: MPEG 80%
  Signature: F4B7CA8A82F895F8C9B3D6E43C31235C7E580B7C
FILE: 15 - Pistol Packin' Mama.flac
  Size: 18016920 Hash: B1AFD8E9313A6862CC3EA750B9419449 Accuracy: -m0
  Conclusion: CDDA 100%
  Signature: 0E56E25649590DF3C060544A3FAD21F39C4CBC5F
FILE: 14 - Have I Told You Lately I Love You.flac
  Size: 16360751 Hash: 0723F125C06ACB11926FF8DCC22ED893 Accuracy: -m0
  Conclusion: CDDA 86%
  Signature: 23559A812CEF3453FD909F36E5AA44B851D0241B
FILE: 13 - Red River Valley.flac
  Size: 15440029 Hash: 304665ACC9F77C4E31D6628BB9EFCA87 Accuracy: -m0
  Conclusion: CDDA 100%
  Signature: 0DC6519F19727776A1F77B20A93B5546D42E93E2
FILE: 12 - The Wedding Of Lily Marlene.flac
  Size: 19034943 Hash: ECF757EFC9A38964BD56D21496E7DCB1 Accuracy: -m0
  Conclusion: CDDA 100%
  Signature: 315F9E818E8167A9D6493D9475B5A1974AD529DC
FILE: 11 - The Woodpecker Song.flac
  Size: 12686665 Hash: 8664CAFD85D1A045727E75F059ABC81F Accuracy: -m0
  Conclusion: CDDA 100%
  Signature: 80B13AD515A28C8FA8831D06CCC55E6A3C845A89
FILE: 10 - Guys And Dolls.flac
  Size: 16046550 Hash: 78247966B0DC1DF1BA5E1BFA0BDD2665 Accuracy: -m0
  Conclusion: MPEG 90%
  Signature: B47C8B8B8CCEB67543E10B0E145ED5C7C6B51AA5
FILE: 09 - Beer Barrel Polka.flac
  Size: 15750689 Hash: 3828439DE473DBFD93FFC859D3A5215E Accuracy: -m0
  Conclusion: CDDA 100%
  Signature: 5DE201FB8A980963A29E8213CD023F9671CC9A77
FILE: 08 - Sabre Dance.flac
  Size: 14804506 Hash: 91A19CBA605274F690C61D742C0E2E4A Accuracy: -m0
  Conclusion: MPEG 89%
  Signature: BFD5F47185801D2265634C788F401A669B92485C
FILE: 07 - Begin The Beguine.flac
  Size: 14460791 Hash: 39BF5D3199C7D00FCF6709385D07B5E5 Accuracy: -m0
  Conclusion: MPEG 90%
  Signature: 5F1A33D53409DEC6CF526FE8D5169041BA59DEAE
FILE: 06 - Joseph Joseph.flac
  Size: 17439510 Hash: 73C68842A60D06909C923B955023B2A2 Accuracy: -m0
  Conclusion: MPEG 91%
  Signature: F9D0731358E88A611F1E57EEEC900BB479CF26A2
FILE: 05 - Shoo Shoo Baby.flac
  Size: 14266348 Hash: B82A8836D9B09658B454D988B88C2B62 Accuracy: -m0
  Conclusion: MPEG 100%
  Signature: D0ED6933DB223E0D15CA83B93D164A83D79C9DAA
FILE: 04 - Don't Sit Under The Apple Tree.flac
  Size: 15678841 Hash: 7DA314EA1D64EC04CB286EA0C0A74B85 Accuracy: -m0
  Conclusion: CDDA 100%
  Signature: 369B2EF76B7F8C6DF93E3688FB55241156A8AD41
FILE: 03 - Bei Mir Bist Du Schoen.flac
  Size: 17762440 Hash: F223E1D71854C943224916A235B39FF4 Accuracy: -m0
  Conclusion: CDDA 100%
  Signature: DE4E6218A93B35E90A0439172AC4991DF3332E88
FILE: 02 - Rum And Coca Cola.flac
  Size: 11745783 Hash: A001EF54193A9ECC22F1B6DFFBF398C3 Accuracy: -m0
  Conclusion: CDDA 100%
  Signature: 0A95C19EF378C8490E0E9659D08D7331D2FA1805
FILE: 01 - Boogie Woogie Bugle Boys.flac
  Size: 14685334 Hash: B6BCE95BCF89BE94F70BE7D9B9C608FA Accuracy: -m0
  Conclusion: CDDA 100%
  Signature: 80E2E0764A32088BAEEE61325AE92474768D8EEB

Код:
[CUETools log; Date: 09.06.2020 18:33:12; Version: 2.1.5]
[CTDB TOCID: x24iJ1VSgf6cuPWD2EqKqo14BwA-] found.
Track | CTDB Status
  1   | (8/8) Accurately ripped
  2   | (8/8) Accurately ripped
  3   | (8/8) Accurately ripped
  4   | (8/8) Accurately ripped
  5   | (8/8) Accurately ripped
  6   | (8/8) Accurately ripped
  7   | (8/8) Accurately ripped
  8   | (8/8) Accurately ripped
  9   | (8/8) Accurately ripped
 10   | (8/8) Accurately ripped
 11   | (8/8) Accurately ripped
 12   | (8/8) Accurately ripped
 13   | (8/8) Accurately ripped
 14   | (8/8) Accurately ripped
 15   | (8/8) Accurately ripped
 16   | (8/8) Accurately ripped
 17   | (8/8) Accurately ripped
 18   | (8/8) Accurately ripped
 19   | (8/8) Accurately ripped
 20   | (8/8) Accurately ripped
[AccurateRip ID: 002ab86e-02719a3a-200dca14] found.
Track   [  CRC   |   V2   ] Status
 01     [cc680d56|eae2d82a] (0+4/4) Accurately ripped
 02     [b7f473f7|7c642224] (0+4/4) Accurately ripped
 03     [a033c40b|47d79d3c] (0+4/4) Accurately ripped
 04     [4de966a1|024b3bdd] (0+4/4) Accurately ripped
 05     [2f1024cc|8b7d7a14] (0+4/4) Accurately ripped
 06     [b1fe283d|a8b464f2] (0+4/4) Accurately ripped
 07     [1464014c|c693a55a] (0+4/4) Accurately ripped
 08     [b62ab32a|5f228dfd] (0+4/4) Accurately ripped
 09     [1e0f6b70|f6b63a95] (0+4/4) Accurately ripped
 10     [4b6d12b7|1369335d] (0+4/4) Accurately ripped
 11     [0085d119|c42fdd88] (0+4/4) Accurately ripped
 12     [6eeb1249|bb72a72a] (0+4/4) Accurately ripped
 13     [f91d178a|5b73715e] (0+4/4) Accurately ripped
 14     [e544f5fd|26021add] (0+4/4) Accurately ripped
 15     [de942a29|403414c0] (0+4/4) Accurately ripped
 16     [e9f78443|78802bb3] (0+4/4) Accurately ripped
 17     [444d1bc0|1dd52b4f] (0+4/4) Accurately ripped
 18     [613e5ed1|6ca304a1] (0+4/4) Accurately ripped
 19     [716d32c6|a7ef85e1] (0+4/4) Accurately ripped
 20     [d3afd376|07570275] (0+4/4) Accurately ripped
Track Peak [ CRC32  ] [W/O NULL] [  LOG   ]
 --   98,8 [377637D1] [10A4DAF5]
 01   98,8 [FED53567] [51DDA700]   CRC32
 02   98,8 [05891A93] [91BF6DC8]   CRC32
 03   98,8 [F59152F4] [945DED19]   CRC32
 04   98,8 [DE7D6EE8] [585E6809]   CRC32
 05   98,8 [551AC2E0] [70A82A1B]   CRC32
 06   98,8 [05EF318D] [56BD82EE]   CRC32
 07   98,8 [61CEBE23] [5D982944]   CRC32
 08   98,8 [0297564D] [1790F840]   CRC32
 09   98,8 [84E7A0DD] [694DE6D0]   CRC32
 10   98,8 [1399EE92] [403BD826]   CRC32
 11   98,8 [079EA847] [89FD0A86]   CRC32
 12   98,8 [EE55B3EE] [D87E2B35]   CRC32
 13   98,8 [88C7B487] [1A3E5602]   CRC32
 14   98,8 [04405237] [CE3B2211]   CRC32
 15   98,8 [1D8E43C2] [6B8690FD]   CRC32
 16   98,8 [96F602ED] [F110A785]   CRC32
 17   98,8 [BC117E6E] [460F9313]   CRC32
 18   98,8 [669C1B61] [183CA568]   CRC32
 19   98,8 [A264FEEA] [45568093]   CRC32
 20   98,8 [A8222073] [29759AB9]   CRC32
Код:
     Track |   Start  |  Length  | Start sector | End sector
    ---------------------------------------------------------
        1  |  0:00.00 |  2:45.17 |         0    |    12391
        2  |  2:45.17 |  3:09.20 |     12392    |    26586
        3  |  5:54.37 |  3:08.01 |     26587    |    40687
        4  |  9:02.38 |  2:58.24 |     40688    |    54061
        5  | 12:00.62 |  2:43.58 |     54062    |    66344
        6  | 14:44.45 |  3:22.44 |     66345    |    81538
        7  | 18:07.14 |  2:59.50 |     81539    |    95013
        8  | 21:06.64 |  2:49.47 |     95014    |   107735
        9  | 23:56.36 |  2:53.20 |    107736    |   120730
       10  | 26:49.56 |  3:13.71 |    120731    |   135276
       11  | 30:03.52 |  2:22.56 |    135277    |   145982
       12  | 32:26.33 |  3:09.18 |    145983    |   160175
       13  | 35:35.51 |  2:44.48 |    160176    |   172523
       14  | 38:20.24 |  3:00.73 |    172524    |   186096
       15  | 41:21.22 |  3:01.61 |    186097    |   199732
       16  | 44:23.08 |  3:00.10 |    199733    |   213242
       17  | 47:23.18 |  2:51.06 |    213243    |   226073
       18  | 50:14.24 |  2:44.47 |    226074    |   238420
       19  | 52:58.71 |  3:05.15 |    238421    |   252310
       20  | 56:04.11 |  2:46.32 |    252311    |   264792
Код:
foobar2000 1.3.3 / Dynamic Range Meter 1.1.1
log date: 2020-06-09 18:33:50
--------------------------------------------------------------------------------
Analyzed: The Andrews Sisters / The Andrew Sisters
--------------------------------------------------------------------------------
DR         Peak         RMS     Duration Track
--------------------------------------------------------------------------------
DR8       -0.10 dB    -9.17 dB      2:45 01-Boogie Woogie Bugle Boys
DR7       -0.10 dB    -9.23 dB      3:09 02-Rum And Coca Cola
DR8       -0.10 dB    -9.53 dB      3:08 03-Bei Mir Bist Du Schoen
DR9       -0.10 dB   -10.10 dB      2:58 04-Don't Sit Under The Apple Tree
DR10      -0.10 dB   -11.58 dB      2:44 05-Shoo Shoo Baby
DR7       -0.10 dB    -9.33 dB      3:23 06-Joseph Joseph
DR7       -0.10 dB   -10.09 dB      3:00 07-Begin The Beguine
DR8       -0.10 dB   -10.72 dB      2:50 08-Sabre Dance
DR8       -0.10 dB    -9.05 dB      2:53 09-Beer Barrel Polka
DR9       -0.10 dB   -10.54 dB      3:14 10-Guys And Dolls
DR7       -0.10 dB    -9.23 dB      2:23 11-The Woodpecker Song
DR8       -0.10 dB    -9.53 dB      3:09 12-The Wedding Of Lily Marlene
DR6       -0.10 dB    -7.62 dB      2:45 13-Red River Valley
DR5       -0.10 dB    -6.97 dB      3:01 14-Have I Told You Lately I Love You
DR5       -0.10 dB    -7.25 dB      3:02 15-Pistol Packin' Mama
DR6       -0.10 dB    -8.17 dB      3:00 16-Big Brass Band From Brazil
DR7       -0.10 dB    -9.84 dB      2:51 17-It's A Quiet Town
DR6       -0.10 dB    -8.26 dB      2:45 18-The Matador
DR7       -0.10 dB   -10.18 dB      3:05 19-The Old Piano Roll Blues
DR7       -0.10 dB    -9.13 dB      2:46 20-Dimples And Cherry Cheeks
--------------------------------------------------------------------------------
Number of tracks:  20
Official DR value: DR7
Samplerate:        44100 Hz
Channels:          2
Bits per sample:   16
Bitrate:           697 kbps
Codec:             FLAC
================================================================================


Если нет сидов - пришлите мне ЛС со ссылкой на раздачу
Правила, инструкции, FAQ!!!
Торрент  Добавлен [22 июн 2020, 15:38] Скачать торрент Магнет ссылка
Скачать торрент
[ Размер 14.06 КБ / Просмотров 1 ]

Статус
Проверен 
 
Размер  305.09 МБ
Приватный: Нет (DHT включён)
.torrent скачан  0
 


     Отправить личное сообщение
   
Страница 1 из 1
Показать сообщения за:  Поле сортировки  
Начать новую тему Ответить на тему


Сейчас этот форум просматривают: нет зарегистрированных пользователей и гости: 0


Вы не можете начинать темы
Вы не можете отвечать на сообщения
Вы не можете редактировать свои сообщения
Вы не можете удалять свои сообщения
Вы не можете добавлять вложения

Перейти:  
cron