Начать новую тему Ответить на тему
Статистика раздачи
Размер: 851.65 МБ | Добавлен: 01 июл 2017, 08:19 | Скачали: 0
Сидеров: 2  [0 байт/сек]    Личеров: 1  [0 байт/сек]
Пред. тема | След. тема 

Автор
Сообщение

СообщениеДобавлено: 01 июл 2017, 08:19 

Ответить с цитатой 

Bob McGrath - Mitch Miller Presents Bob McGrath
Формат записи/Источник записи: [TR24][OF]
Наличие водяных знаков: Нет
Год издания/переиздания диска: 1965/2015
Жанр: Pop
Издатель (лейбл): Columbia/Legacy
Продолжительность: 41:20
Наличие сканов в содержимом раздачи: Только обложка альбома
Треклист:
01. The Drifter (3:02)
02. More (Theme from The Motion Picture, Mondo Cane) (3:49)
03. Danny Boy (4:10)
04. Venezuala (3:24)
05. A Fellow Needs A Girl (3:33)
06. Maybe (3:05)
07. A Ribbon Bow (3:20)
08. The Very Thought Of You (3:37)
09. On The Street Where You Live (2:43)
10. Estrellita (3:37)
11. Black Is The Color Of My True Love's Hair (3:26)
12. Panis Angelicus (3:33)
 
Robert Emmet "Bob" McGrath is an American singer and actor. He worked with Mitch Miller and was the featured tenor on Miller's NBC-TV television singalong series Sing Along with Mitch for five seasons from 1959 to 1964. Later McGrath became a well-known recording artist in Japan, releasing a series of successful albums of Irish and other folk songs and ballads.

Контейнер: FLAC (*.flac)
Тип рипа: tracks
Разрядность: 24/96
Количество каналов: 2.0
Код:
foobar2000 1.3.14 / Dynamic Range Meter 1.1.1
log date: 2017-03-10 15:06:48
--------------------------------------------------------------------------------
Analyzed: Bob McGrath / Mitch Miller Presents Bob McGrath
--------------------------------------------------------------------------------
DR         Peak         RMS     Duration Track
--------------------------------------------------------------------------------
DR10       0.00 dB   -12.78 dB      3:02 01-The Drifter
DR10      -0.71 dB   -13.37 dB      3:49 02-More (Theme from the Motion Picture, Mondo Cane)
DR11      -2.02 dB   -17.39 dB      4:10 03-Danny Boy
DR10      -1.45 dB   -13.87 dB      3:24 04-Venezuala
DR10      -2.01 dB   -15.15 dB      3:33 05-A Fellow Needs a Girl
DR9       -1.28 dB   -13.25 dB      3:05 06-Maybe
DR9       -1.96 dB   -13.52 dB      3:20 07-A Ribbon Bow
DR10      -0.66 dB   -13.59 dB      3:37 08-The Very Thought of You
DR9       -0.36 dB   -13.21 dB      2:43 09-On the Street Where You Live
DR10      -1.81 dB   -15.67 dB      3:37 10-Estrellita
DR10      -2.08 dB   -14.89 dB      3:26 11-Black Is the Color of My True Love's Hair
DR10      -2.73 dB   -15.20 dB      3:33 12-Panis Angelicus
--------------------------------------------------------------------------------
Number of tracks:  12
Official DR value: DR10
Samplerate:        96000 Hz
Channels:          2
Bits per sample:   24
Bitrate:           2941 kbps
Codec:             FLAC
================================================================================
Источник: acousticsounds.com[/spoiler]
Правила, инструкции, FAQ!!!
Торрент  Добавлен [01 июл 2017, 08:19] Скачать торрент Магнет ссылка
Скачать торрент
[ Размер 17.99 КБ / Просмотров 57 ]

Статус
Проверен 
 
Размер  851.65 МБ
Приватный: Нет (DHT включён)
.torrent скачан  0
 


     Отправить личное сообщение
   
Страница 1 из 1
Показать сообщения за:  Поле сортировки  
Начать новую тему Ответить на тему


Сейчас этот форум просматривают: нет зарегистрированных пользователей и гости: 0


Вы не можете начинать темы
Вы не можете отвечать на сообщения
Вы не можете редактировать свои сообщения
Вы не можете удалять свои сообщения
Вы не можете добавлять вложения

Перейти:  
cron
cron