Начать новую тему Ответить на тему
Статистика раздачи
Размер: 1.36 ГБ | Добавлен: 24 авг 2016, 14:17 | Скачали: 0
Сидеров: 2  [0 байт/сек]    Личеров: 3  [0 байт/сек]
Пред. тема | След. тема 

Автор
Сообщение

СообщениеДобавлено: 24 авг 2016, 14:17 

Ответить с цитатой 

The Yardbirds – Roger The Engineer

Жанр: Blues Rock, Psychedelic Rock
Носитель: LP (Dual Mono)
Год выпуска: 2011 (Reissue)
Год первой публикации: 1966
Лейбл: Music On Vinyl ‎(MOVLP289)
Страна-производитель: Europe
Аудио кодек: FLAC
Тип рипа: image+.cue
Формат записи: 24/192
Формат раздачи: 24/192
Продолжительность: 00:36:58
Треклист:
01. Happenings Ten Years Time Ago (2:57)
02. Lost Women (3:14)
03. Over Under Sideways Down (2:24)
04. The Nazz Are Blue (3:04)
05. I Can't Make Your Way (2:27)
06. Rack My Mind (3:14)
07. Farewell (1:31)
08. Hot House Of Omagararshid (2:45)
09. Jeff's Boogie (2:26)
10. He's Always There (2:29)
11. Turn Into Earth (3:12)
12. What Do You Want (3:22)
13. Ever Since The World Began (2:03)
14. Psycho Daisies (1:49)

Источник оцифровки: автором раздачи
Код класса состояния винила: Ex
Устройство воспроизведения: Pro-Ject 1-Xpression III
Головка звукоснимателя: Goldring 1012 GX
Предварительный усилитель: Pro-Ject Phono Box DS+
АЦП: ESI Juli@
Программа-оцифровщик: WavePurity
Обработка: Нет
В раздаче
Доп. информация:
Код:
foobar2000 1.3.2 / Dynamic Range Meter 1.1.1
log date: 2015-02-27 10:58:24

--------------------------------------------------------------------------------
Analyzed: The Yardbirds / Roger The Engineer
--------------------------------------------------------------------------------

DR         Peak         RMS     Duration Track
--------------------------------------------------------------------------------
DR10      -1.85 dB   -14.87 dB      2:57 01-Happenings Ten Years Time Ago
DR10      -1.87 dB   -14.65 dB      3:14 02-Lost Women
DR10      -3.26 dB   -15.50 dB      2:24 03-Over Under Sideways Down
DR12      -2.49 dB   -15.86 dB      3:04 04- The Nazz Are Blue
DR10      -3.22 dB   -16.10 dB      2:27 05-I Can't Make Your Way
DR10      -3.83 dB   -16.22 dB      3:14 06-Rack My Mind
DR10      -5.29 dB   -17.88 dB      1:31 07-Farewell
DR10      -2.15 dB   -14.21 dB      2:45 08-Hot House Of Omagararshid
DR10      -1.79 dB   -13.44 dB      2:26 09-Jeff's Boogie
DR11      -1.60 dB   -15.49 dB      2:29 10-He's Always There
DR10      -2.81 dB   -14.16 dB      3:12 11-Turn Into Earth
DR11      -1.44 dB   -14.27 dB      3:22 12-What Do You Want
DR10      -2.92 dB   -14.19 dB      2:03 13-Ever Since The World Began
DR10      -1.72 dB   -14.41 dB      1:49 14-Psycho Daisies
--------------------------------------------------------------------------------

Number of tracks:  14
Official DR value: DR10

Samplerate:        192000 Hz
Channels:          2
Bits per sample:   24
Bitrate:           5090 kbps
Codec:             FLAC
================================================================================
Правила, инструкции, FAQ!!!
Торрент  Добавлен [24 авг 2016, 14:17] Скачать торрент Магнет ссылка
Скачать торрент
[ Размер 14.4 КБ / Просмотров 10 ]

Статус
Проверен 
 
Размер  1.36 ГБ
Приватный: Нет (DHT включён)
.torrent скачан  0
 


     Отправить личное сообщение
   
Страница 1 из 1
Показать сообщения за:  Поле сортировки  
Начать новую тему Ответить на тему


Сейчас этот форум просматривают: нет зарегистрированных пользователей и гости: 0


Вы не можете начинать темы
Вы не можете отвечать на сообщения
Вы не можете редактировать свои сообщения
Вы не можете удалять свои сообщения
Вы не можете добавлять вложения

Перейти:  
cron
cron