Начать новую тему Ответить на тему
Статистика раздачи
Размер: 1.54 ГБ | Добавлен: 24 авг 2016, 12:28 | Скачали: 0
Сидеров: 0  [0 байт/сек]    Личеров: 0  [0 байт/сек]
Пред. тема | След. тема 

Автор
Сообщение

СообщениеДобавлено: 24 авг 2016, 12:28 

Ответить с цитатой 

Grand Funk – Phoenix

Жанр: Blues Rock, Hard Rock, Rock & Roll
Носитель: LP
Год выпуска: 1973
Лейбл: Capitol Records ‎(ECP-80662)
Страна-производитель: Japan
Аудио кодек: FLAC
Тип рипа: image+.cue
Формат записи: 24/192
Формат раздачи: 24/192
Продолжительность: 00:41:34
Треклист:
01. Flight Of The Phoenix (3:43)
02. Trying To Get Away (4:13)
03. Someone (4:05)
04. She Got To Move Me (4:49)
05. Rain Keeps Fallin' (3:29)
06. I Just Gotta Know (3:54)
07. So You Won't Have To Die (3:24)
08. Freedom Is For Children (6:10)
09. Gotta Find Me A Better Day (4:11)
10. Rock 'N Roll Soul (3:35)

Источник оцифровки: автором раздачи
Код класса состояния винила: Ex
Устройство воспроизведения: Pro-Ject 1-Xpression III
Головка звукоснимателя: Goldring 1012 GX
Предварительный усилитель: Pro-Ject Phono Box DS+
АЦП: ESI Juli@
Программа-оцифровщик: WavePurity
Обработка: Нет
В раздаче
Доп. информация:
Код:
foobar2000 1.3.2 / Dynamic Range Meter 1.1.1
log date: 2014-08-28 14:19:18

--------------------------------------------------------------------------------
Analyzed: Grand Funk / Phoenix
--------------------------------------------------------------------------------

DR         Peak         RMS     Duration Track
--------------------------------------------------------------------------------
DR13      -0.29 dB   -16.66 dB      3:43 01-Flight Of The Phoenix
DR13      -1.30 dB   -16.96 dB      4:13 02-Trying To Get Away
DR12      -1.55 dB   -17.93 dB      4:05 03-Someone
DR13      -1.72 dB   -16.98 dB      4:49 04-She Got To Move Me
DR13      -0.73 dB   -18.21 dB      3:29 05-Rain Keeps Fallin'
DR13      -0.75 dB   -16.52 dB      3:54 06-I Just Gotta Know
DR12      -2.95 dB   -18.34 dB      3:24 07-So You Won't Have To Die
DR13      -1.09 dB   -17.93 dB      6:10 08-Freedom Is For Children
DR13      -1.35 dB   -17.05 dB      4:11 09-Gotta Find Me A Better Day
DR12      -3.08 dB   -17.54 dB      3:35 10-Rock 'N Roll Soul
--------------------------------------------------------------------------------

Number of tracks:  10
Official DR value: DR13

Samplerate:        192000 Hz
Channels:          2
Bits per sample:   24
Bitrate:           5057 kbps
Codec:             FLAC
================================================================================
Код:
[url=http://radikal.ru/fp/776bfd8676c84dd3aec11b8b94f6abcc][img]http://s019.radikal.ru/i642/1408/3b/c6408d7dbc0dt.jpg[/img][/url]
Правила, инструкции, FAQ!!!
Торрент  Добавлен [24 авг 2016, 12:28] Скачать торрент Магнет ссылка
Скачать торрент
[ Размер 16.5 КБ / Просмотров 4 ]

Статус
Проверен 
 
Размер  1.54 ГБ
Приватный: Нет (DHT включён)
.torrent скачан  0
 


     Отправить личное сообщение
   
Страница 1 из 1
Показать сообщения за:  Поле сортировки  
Начать новую тему Ответить на тему


Сейчас этот форум просматривают: нет зарегистрированных пользователей и гости: 0


Вы не можете начинать темы
Вы не можете отвечать на сообщения
Вы не можете редактировать свои сообщения
Вы не можете удалять свои сообщения
Вы не можете добавлять вложения

Перейти:  
cron