Начать новую тему Ответить на тему
Статистика раздачи
Размер: 2.03 ГБ | Добавлен: 24 авг 2016, 12:09 | Скачали: 0
Сидеров: 1  [0 байт/сек]    Личеров: 0  [0 байт/сек]
Пред. тема | След. тема 

Автор
Сообщение

СообщениеДобавлено: 24 авг 2016, 12:09 

Ответить с цитатой 

Mountain / Flowers Of Evil (Japan)
Flowers Of Evil
Жанр: Blues Rock /Hard Rock
Год выпуска: 1971-Jan-01
Лейбл: Windfall Records – BLPL-1WF
Страна-производитель:Japan
Аудио кодек: FLAC
Тип рипа: image+.cue
Формат записи: 32/192
Формат раздачи: 24/192
Продолжительность: 00:51:29
Источник оцифровки: автором раздачи
Код класса состояния винила: NM
Устройство воспроизведения:Pioneer PL-30L
Головка звукоснимателя: Denon DL-103M
Предварительный усилитель: NAD PP2iM
АЦП: Xonar Essence STX
Программа-оцифровщик: Sound Forge Pro 10
Обработка: Sound Forge Pro 10:
Mountain

A1 - Flowers Of Evil 4:53
Written-By – Rea*
A2 - King's Chorale 1:04
A3 - One Last Cold Kiss 3:45
A4 - Crossroader 4:47
A5 - Pride And Passion 7:05

B1 - Dream Sequence (24:27)
B1a - Guitar Solo
B1b - Roll Over Beethoven
Written-By – Berry*
B1c - Dreams Of Milk And Honey
Written-By – Ventura*, Landsberg*
B1d - Variations
Written-By – Laing*, Knight*
B1e - Swan Theme
-
B2 - Mississippi Queen 3:53
Written-By – Rea*
NO/
Credits:
Artwork By [Cover] – Gail Collins
Bass, Vocals – Felix Pappalardi [Producer]
Drums – Corky Laing
Engineer – Bob D'Orleans
Engineer [Assistant] – Judy Szekely
Executive Producer – Bud Prager
Guitar, Vocals – Leslie West
Keyboards – Steve Knight
Written-By – Pappalardi* (tracks: A1 to A5, B1d to B2), Gail Collins (tracks: A3 to A5, B1e), Leslie West (tracks: A1, B1a, B1c, B1d, B2)
Notes:
Gatefold release with booklet
1971 Windfall Music Enterprises, Inc.

Exclusively distributed by CBS/Sony Inc. (Tokyo, Japan)

Barcode and Other Identifiers:
Matrix / Runout (Side 1): BLPL 1A1
Matrix / Runout (Side 2): BLPL 1B1
TITLE "Flowers Of Evil"
PERFORMER "Mountain"
FILE "A_Flowers Of Evil.flac" WAVE
TRACK 01 AUDIO
TITLE "Flowers Of Evil"
PERFORMER "Mountain"
INDEX 01 00:00:00
TRACK 02 AUDIO
TITLE "King's Chorale"
PERFORMER "Mountain"
INDEX 01 05:02:29
TRACK 03 AUDIO
TITLE "One Last Cold Kiss"
PERFORMER "Mountain"
INDEX 01 06:07:31
TRACK 04 AUDIO
TITLE "Crossroader"
PERFORMER "Mountain"
INDEX 01 10:01:23
TRACK 05 AUDIO
TITLE "Pride And Passion"
PERFORMER "Mountain"
INDEX 01 14:53:68
FILE "B_Flowers Of Evil.flac" WAVE
TRACK 06 AUDIO
TITLE "Dream Sequence: a. Guitar Solo"
INDEX 01 00:00:00
TRACK 07 AUDIO
TITLE "b. Roll Over Beethoven"
INDEX 01 02:23:15
TRACK 08 AUDIO
TITLE "c. Dreams Of Milk And Honey"
INDEX 01 09:02:72
TRACK 09 AUDIO
TITLE "d. Variations"
INDEX 01 13:00:71
TRACK 10 AUDIO
TITLE "e. Swan Theme"
INDEX 01 14:50:20
TRACK 11 AUDIO
TITLE "Mississippi Queen"
INDEX 01 25:18:14
Nex /
Все материалы представлены исключительно в ознакомительных целях
Правила, инструкции, FAQ!!!
Торрент  Добавлен [24 авг 2016, 12:09] Скачать торрент Магнет ссылка
Скачать торрент
[ Размер 11.12 КБ / Просмотров 16 ]

Статус
Проверен 
 
Размер  2.03 ГБ
Приватный: Нет (DHT включён)
.torrent скачан  0
 


     Отправить личное сообщение
   
Страница 1 из 1
Показать сообщения за:  Поле сортировки  
Начать новую тему Ответить на тему


Сейчас этот форум просматривают: нет зарегистрированных пользователей и гости: 0


Вы не можете начинать темы
Вы не можете отвечать на сообщения
Вы не можете редактировать свои сообщения
Вы не можете удалять свои сообщения
Вы не можете добавлять вложения

Перейти:  
cron
cron